  0
SECTION
  2
HEADER
  9
$ACADVER
  1
AC1015
  9
$ACADMAINTVER
 70
     6
  9
$DWGCODEPAGE
  3
ANSI_1252
  9
$INSBASE
 10
0.0
 20
0.0
 30
0.0
  9
$EXTMIN
 10
-297.0000000000001
 20
0.0
 30
0.0
  9
$EXTMAX
 10
0.0
 20
210.0000000000001
 30
0.0
  9
$LIMMIN
 10
0.0
 20
0.0
  9
$LIMMAX
 10
12.0
 20
9.0
  9
$ORTHOMODE
 70
     0
  9
$REGENMODE
 70
     1
  9
$FILLMODE
 70
     1
  9
$QTEXTMODE
 70
     0
  9
$MIRRTEXT
 70
     1
  9
$LTSCALE
 40
1.0
  9
$ATTMODE
 70
     1
  9
$TEXTSIZE
 40
0.2
  9
$TRACEWID
 40
0.05
  9
$TEXTSTYLE
  7
Standard
  9
$CLAYER
  8
0
  9
$CELTYPE
  6
ByLayer
  9
$CECOLOR
 62
   256
  9
$CELTSCALE
 40
1.0
  9
$DISPSILH
 70
     0
  9
$DIMSCALE
 40
1.0
  9
$DIMASZ
 40
0.18
  9
$DIMEXO
 40
0.0625
  9
$DIMDLI
 40
0.38
  9
$DIMRND
 40
0.0
  9
$DIMDLE
 40
0.0
  9
$DIMEXE
 40
0.18
  9
$DIMTP
 40
0.0
  9
$DIMTM
 40
0.0
  9
$DIMTXT
 40
0.18
  9
$DIMCEN
 40
0.09
  9
$DIMTSZ
 40
0.0
  9
$DIMTOL
 70
     0
  9
$DIMLIM
 70
     0
  9
$DIMTIH
 70
     1
  9
$DIMTOH
 70
     1
  9
$DIMSE1
 70
     0
  9
$DIMSE2
 70
     0
  9
$DIMTAD
 70
     0
  9
$DIMZIN
 70
     0
  9
$DIMBLK
  1

  9
$DIMASO
 70
     1
  9
$DIMSHO
 70
     1
  9
$DIMPOST
  1

  9
$DIMAPOST
  1

  9
$DIMALT
 70
     0
  9
$DIMALTD
 70
     2
  9
$DIMALTF
 40
25.4
  9
$DIMLFAC
 40
1.0
  9
$DIMTOFL
 70
     0
  9
$DIMTVP
 40
0.0
  9
$DIMTIX
 70
     0
  9
$DIMSOXD
 70
     0
  9
$DIMSAH
 70
     0
  9
$DIMBLK1
  1

  9
$DIMBLK2
  1

  9
$DIMSTYLE
  2
Standard
  9
$DIMCLRD
 70
     0
  9
$DIMCLRE
 70
     0
  9
$DIMCLRT
 70
     0
  9
$DIMTFAC
 40
1.0
  9
$DIMGAP
 40
0.09
  9
$DIMJUST
 70
     0
  9
$DIMSD1
 70
     0
  9
$DIMSD2
 70
     0
  9
$DIMTOLJ
 70
     1
  9
$DIMTZIN
 70
     0
  9
$DIMALTZ
 70
     0
  9
$DIMALTTZ
 70
     0
  9
$DIMUPT
 70
     0
  9
$DIMDEC
 70
     4
  9
$DIMTDEC
 70
     4
  9
$DIMALTU
 70
     2
  9
$DIMALTTD
 70
     2
  9
$DIMTXSTY
  7
Standard
  9
$DIMAUNIT
 70
     0
  9
$DIMADEC
 70
     0
  9
$DIMALTRND
 40
0.0
  9
$DIMAZIN
 70
     0
  9
$DIMDSEP
 70
    46
  9
$DIMATFIT
 70
     3
  9
$DIMFRAC
 70
     0
  9
$DIMLDRBLK
  1

  9
$DIMLUNIT
 70
     2
  9
$DIMLWD
 70
    -2
  9
$DIMLWE
 70
    -2
  9
$DIMTMOVE
 70
     0
  9
$LUNITS
 70
     2
  9
$LUPREC
 70
     4
  9
$SKETCHINC
 40
0.1
  9
$FILLETRAD
 40
0.5
  9
$AUNITS
 70
     0
  9
$AUPREC
 70
     0
  9
$MENU
  1
.
  9
$ELEVATION
 40
0.0
  9
$PELEVATION
 40
0.0
  9
$THICKNESS
 40
0.0
  9
$LIMCHECK
 70
     0
  9
$CHAMFERA
 40
0.5
  9
$CHAMFERB
 40
0.5
  9
$CHAMFERC
 40
1.0
  9
$CHAMFERD
 40
0.0
  9
$SKPOLY
 70
     0
  9
$TDCREATE
 40
2456997.594725116
  9
$TDUCREATE
 40
2456997.553058449
  9
$TDUPDATE
 40
2456997.594725475
  9
$TDUUPDATE
 40
2456997.553058808
  9
$TDINDWG
 40
0.0000000116
  9
$TDUSRTIMER
 40
0.0000000116
  9
$USRTIMER
 70
     1
  9
$ANGBASE
 50
0.0
  9
$ANGDIR
 70
     0
  9
$PDMODE
 70
     0
  9
$PDSIZE
 40
0.0
  9
$PLINEWID
 40
0.0
  9
$SPLFRAME
 70
     0
  9
$SPLINETYPE
 70
     6
  9
$SPLINESEGS
 70
     8
  9
$HANDSEED
  5
242
  9
$SURFTAB1
 70
     6
  9
$SURFTAB2
 70
     6
  9
$SURFTYPE
 70
     6
  9
$SURFU
 70
     6
  9
$SURFV
 70
     6
  9
$UCSBASE
  2

  9
$UCSNAME
  2

  9
$UCSORG
 10
0.0
 20
0.0
 30
0.0
  9
$UCSXDIR
 10
1.0
 20
0.0
 30
0.0
  9
$UCSYDIR
 10
0.0
 20
1.0
 30
0.0
  9
$UCSORTHOREF
  2

  9
$UCSORTHOVIEW
 70
     0
  9
$UCSORGTOP
 10
0.0
 20
0.0
 30
0.0
  9
$UCSORGBOTTOM
 10
0.0
 20
0.0
 30
0.0
  9
$UCSORGLEFT
 10
0.0
 20
0.0
 30
0.0
  9
$UCSORGRIGHT
 10
0.0
 20
0.0
 30
0.0
  9
$UCSORGFRONT
 10
0.0
 20
0.0
 30
0.0
  9
$UCSORGBACK
 10
0.0
 20
0.0
 30
0.0
  9
$PUCSBASE
  2

  9
$PUCSNAME
  2

  9
$PUCSORG
 10
0.0
 20
0.0
 30
0.0
  9
$PUCSXDIR
 10
1.0
 20
0.0
 30
0.0
  9
$PUCSYDIR
 10
0.0
 20
1.0
 30
0.0
  9
$PUCSORTHOREF
  2

  9
$PUCSORTHOVIEW
 70
     0
  9
$PUCSORGTOP
 10
0.0
 20
0.0
 30
0.0
  9
$PUCSORGBOTTOM
 10
0.0
 20
0.0
 30
0.0
  9
$PUCSORGLEFT
 10
0.0
 20
0.0
 30
0.0
  9
$PUCSORGRIGHT
 10
0.0
 20
0.0
 30
0.0
  9
$PUCSORGFRONT
 10
0.0
 20
0.0
 30
0.0
  9
$PUCSORGBACK
 10
0.0
 20
0.0
 30
0.0
  9
$USERI1
 70
     0
  9
$USERI2
 70
     0
  9
$USERI3
 70
     0
  9
$USERI4
 70
     0
  9
$USERI5
 70
     0
  9
$USERR1
 40
18.1
  9
$USERR2
 40
0.0
  9
$USERR3
 40
0.0
  9
$USERR4
 40
0.0
  9
$USERR5
 40
0.0
  9
$WORLDVIEW
 70
     1
  9
$SHADEDGE
 70
     3
  9
$SHADEDIF
 70
    70
  9
$TILEMODE
 70
     1
  9
$MAXACTVP
 70
    64
  9
$PINSBASE
 10
0.0
 20
0.0
 30
0.0
  9
$PLIMCHECK
 70
     0
  9
$PEXTMIN
 10
1.00000000000000E+20
 20
1.00000000000000E+20
 30
1.00000000000000E+20
  9
$PEXTMAX
 10
-1.00000000000000E+20
 20
-1.00000000000000E+20
 30
-1.00000000000000E+20
  9
$PLIMMIN
 10
0.0
 20
0.0
  9
$PLIMMAX
 10
12.0
 20
9.0
  9
$UNITMODE
 70
     0
  9
$VISRETAIN
 70
     1
  9
$PLINEGEN
 70
     0
  9
$PSLTSCALE
 70
     1
  9
$TREEDEPTH
 70
  3020
  9
$CMLSTYLE
  2
Standard
  9
$CMLJUST
 70
     0
  9
$CMLSCALE
 40
1.0
  9
$PROXYGRAPHICS
 70
     1
  9
$MEASUREMENT
 70
     1
  9
$CELWEIGHT
370
    -1
  9
$ENDCAPS
280
     0
  9
$JOINSTYLE
280
     0
  9
$LWDISPLAY
290
     0
  9
$INSUNITS
 70
     4
  9
$HYPERLINKBASE
  1

  9
$STYLESHEET
  1

  9
$XEDIT
290
     1
  9
$CEPSNTYPE
380
     0
  9
$PSTYLEMODE
290
     1
  9
$FINGERPRINTGUID
  2
{48766060-8DF2-45F2-8309-6F3F177ACD1E}
  9
$VERSIONGUID
  2
{FAEB1C32-E019-11D5-929B-00C0DF256EC4}
  9
$EXTNAMES
290
     1
  9
$PSVPSCALE
 40
0.0
  9
$OLESTARTUP
290
     0
  0
ENDSEC
  0
SECTION
  2
CLASSES
  0
CLASS
  1
ACDBDICTIONARYWDFLT
  2
AcDbDictionaryWithDefault
  3
ObjectDBX Classes
 90
        0
280
     0
281
     0
  0
CLASS
  1
VISUALSTYLE
  2
AcDbVisualStyle
  3
ObjectDBX Classes
 90
     4095
280
     0
281
     0
  0
CLASS
  1
MATERIAL
  2
AcDbMaterial
  3
ObjectDBX Classes
 90
     1153
280
     0
281
     0
  0
CLASS
  1
DICTIONARYVAR
  2
AcDbDictionaryVar
  3
ObjectDBX Classes
 90
        0
280
     0
281
     0
  0
CLASS
  1
ACDBPLACEHOLDER
  2
AcDbPlaceHolder
  3
ObjectDBX Classes
 90
        0
280
     0
281
     0
  0
CLASS
  1
LAYOUT
  2
AcDbLayout
  3
ObjectDBX Classes
 90
        0
280
     0
281
     0
  0
ENDSEC
  0
SECTION
  2
TABLES
  0
TABLE
  2
VPORT
  5
8
330
0
100
AcDbSymbolTable
 70
     1
  0
VPORT
  5
29
330
8
100
AcDbSymbolTableRecord
100
AcDbViewportTableRecord
  2
*Active
 70
     0
 10
0.0
 20
0.0
 11
1.0
 21
1.0
 12
-148.5000000000001
 22
105.0000000000001
 13
0.0
 23
0.0
 14
0.5
 24
0.5
 15
0.5
 25
0.5
 16
0.0
 26
0.0
 36
1.0
 17
0.0
 27
0.0
 37
0.0
 40
231.0000000000001
 41
1.60267857142857
 42
50.0
 43
0.0
 44
0.0
 50
0.0
 51
0.0
 71
     0
 72
   100
 73
     1
 74
     3
 75
     0
 76
     0
 77
     0
 78
     0
281
     0
 65
     1
110
0.0
120
0.0
130
0.0
111
1.0
121
0.0
131
0.0
112
0.0
122
1.0
132
0.0
 79
     0
146
0.0
  0
ENDTAB
  0
TABLE
  2
LTYPE
  5
5
330
0
100
AcDbSymbolTable
 70
     8
  0
LTYPE
  5
14
330
5
100
AcDbSymbolTableRecord
100
AcDbLinetypeTableRecord
  2
ByBlock
 70
     0
  3

 72
    65
 73
     0
 40
0.0
  0
LTYPE
  5
15
330
5
100
AcDbSymbolTableRecord
100
AcDbLinetypeTableRecord
  2
ByLayer
 70
     0
  3

 72
    65
 73
     0
 40
0.0
  0
LTYPE
  5
16
330
5
100
AcDbSymbolTableRecord
100
AcDbLinetypeTableRecord
  2
Continuous
 70
     0
  3
Solid line
 72
    65
 73
     0
 40
0.0
  0
LTYPE
  5
3F
330
5
100
AcDbSymbolTableRecord
100
AcDbLinetypeTableRecord
  2
DASHED
 70
     0
  3
Dashed
 72
    65
 73
     2
 40
15.0
 49
7.0
 74
     0
 49
-8.0
 74
     0
  0
LTYPE
  5
40
330
5
100
AcDbSymbolTableRecord
100
AcDbLinetypeTableRecord
  2
DOTTED
 70
     0
  3
Dotted
 72
    65
 73
     2
 40
1.0
 49
0.0
 74
     0
 49
-1.0
 74
     0
  0
LTYPE
  5
41
330
5
100
AcDbSymbolTableRecord
100
AcDbLinetypeTableRecord
  2
DOT_CENTER
 70
     0
  3
Dot_Center
 72
    65
 73
     4
 40
14.0
 49
12.0
 74
     0
 49
-1.0
 74
     0
 49
0.0
 74
     0
 49
-1.0
 74
     0
  0
LTYPE
  5
42
330
5
100
AcDbSymbolTableRecord
100
AcDbLinetypeTableRecord
  2
LONG_DASHED
 70
     0
  3
Long_Dashed
 72
    65
 73
     2
 40
15.0
 49
10.0
 74
     0
 49
-5.0
 74
     0
  0
LTYPE
  5
43
330
5
100
AcDbSymbolTableRecord
100
AcDbLinetypeTableRecord
  2
DASH_CENTER
 70
     0
  3
Dash_Center
 72
    65
 73
     4
 40
14.0
 49
11.0
 74
     0
 49
-1.0
 74
     0
 49
1.0
 74
     0
 49
-1.0
 74
     0
  0
LTYPE
  5
44
330
5
100
AcDbSymbolTableRecord
100
AcDbLinetypeTableRecord
  2
PHANTOM
 70
     0
  3
Phantom
 72
    65
 73
     6
 40
13.0
 49
10.0
 74
     0
 49
-1.0
 74
     0
 49
0.0
 74
     0
 49
-1.0
 74
     0
 49
0.0
 74
     0
 49
-1.0
 74
     0
  0
LTYPE
  5
45
330
5
100
AcDbSymbolTableRecord
100
AcDbLinetypeTableRecord
  2
CENTER_DASH_DASH
 70
     0
  3
Center_Dash_Dash
 72
    65
 73
     6
 40
14.0
 49
9.0
 74
     0
 49
-1.0
 74
     0
 49
1.0
 74
     0
 49
-1.0
 74
     0
 49
1.0
 74
     0
 49
-1.0
 74
     0
  0
ENDTAB
  0
TABLE
  2
LAYER
  5
2
330
0
100
AcDbSymbolTable
 70
     2
  0
LAYER
  5
10
330
2
100
AcDbSymbolTableRecord
100
AcDbLayerTableRecord
  2
0
 70
     0
 62
     7
  6
Continuous
370
    -3
390
F
  0
LAYER
  5
46
330
2
100
AcDbSymbolTableRecord
100
AcDbLayerTableRecord
  2
1
 70
     0
 62
     7
  6
Continuous
370
    -3
390
F
  0
ENDTAB
  0
TABLE
  2
STYLE
  5
3
330
0
100
AcDbSymbolTable
 70
     3
  0
STYLE
  5
11
330
3
100
AcDbSymbolTableRecord
100
AcDbTextStyleTableRecord
  2
Standard
 70
     0
 40
0.0
 41
1.0
 50
0.0
 71
     0
 42
0.2
  3
txt
  4

  0
STYLE
  5
9A
330
3
100
AcDbSymbolTableRecord
100
AcDbTextStyleTableRecord
  2
CONVERTER_11
 70
     0
 40
0.0
 41
1.2
 50
0.0
 71
     0
 42
0.2
  3
ARIAL.TTF
  4

  0
STYLE
  5
1E0
330
3
100
AcDbSymbolTableRecord
100
AcDbTextStyleTableRecord
  2
CONVERTER_12
 70
     0
 40
0.0
 41
0.95
 50
0.0
 71
     0
 42
0.2
  3
simplex.shx
  4

  0
ENDTAB
  0
TABLE
  2
VIEW
  5
6
330
0
100
AcDbSymbolTable
 70
     0
  0
ENDTAB
  0
TABLE
  2
UCS
  5
7
330
0
100
AcDbSymbolTable
 70
     0
  0
ENDTAB
  0
TABLE
  2
APPID
  5
9
330
0
100
AcDbSymbolTable
 70
     1
  0
APPID
  5
12
330
9
100
AcDbSymbolTableRecord
100
AcDbRegAppTableRecord
  2
ACAD
 70
     0
  0
ENDTAB
  0
TABLE
  2
DIMSTYLE
  5
A
330
0
100
AcDbSymbolTable
 70
     6
100
AcDbDimStyleTable
  0
DIMSTYLE
105
27
330
A
100
AcDbSymbolTableRecord
100
AcDbDimStyleTableRecord
  2
Standard
 70
     0
178
     0
340
11
  0
DIMSTYLE
105
1E4
102
{ACAD_REACTORS
330
1E5
102
}
330
A
100
AcDbSymbolTableRecord
100
AcDbDimStyleTableRecord
  2
ME10_DIM_10
 70
     0
  3
M<>
 41
3.0
 42
0.5
 44
1.0
 73
     0
 74
     0
 77
     1
 78
     8
140
3.0
147
2.0
172
     1
173
     1
174
     1
175
     1
176
     2
177
     2
271
     2
178
     4
271
     2
340
1E0
  0
DIMSTYLE
105
1EF
102
{ACAD_REACTORS
330
1F0
102
}
330
A
100
AcDbSymbolTableRecord
100
AcDbDimStyleTableRecord
  2
ME10_DIM_11
 70
     0
 41
3.0
 42
0.5
 44
1.0
 73
     0
 74
     0
 77
     1
 78
     8
140
3.0
147
2.0
172
     1
173
     1
174
     1
175
     1
176
     2
177
     2
271
     2
178
     4
271
     2
340
1E0
  0
DIMSTYLE
105
1FA
102
{ACAD_REACTORS
330
1FB
102
}
330
A
100
AcDbSymbolTableRecord
100
AcDbDimStyleTableRecord
  2
ME10_DIM_12
 70
     0
 41
3.0
 42
0.5
 44
1.0
 73
     0
 74
     0
 77
     1
 78
     8
140
3.0
147
2.0
172
     1
173
     1
174
     1
175
     1
176
     2
177
     2
271
     2
178
     4
271
     2
340
1E0
  0
DIMSTYLE
105
205
102
{ACAD_REACTORS
330
206
102
}
330
A
100
AcDbSymbolTableRecord
100
AcDbDimStyleTableRecord
  2
ME10_DIM_13
 70
     0
 41
3.0
 42
0.5
 44
1.0
 73
     0
 74
     0
 77
     1
 78
     8
140
3.0
147
2.0
172
     1
173
     1
174
     1
175
     1
176
     2
177
     2
271
     2
178
     4
271
     2
340
1E0
  0
DIMSTYLE
105
210
102
{ACAD_REACTORS
330
211
102
}
330
A
100
AcDbSymbolTableRecord
100
AcDbDimStyleTableRecord
  2
ME10_DIM_14
 70
     0
 41
3.0
 42
0.5
 44
1.0
 73
     0
 74
     0
 77
     1
 78
     8
140
3.0
147
2.0
172
     1
173
     1
174
     1
175
     1
176
     2
177
     2
271
     2
178
     4
271
     2
340
1E0
  0
ENDTAB
  0
TABLE
  2
BLOCK_RECORD
  5
1
330
0
100
AcDbSymbolTable
 70
     8
  0
BLOCK_RECORD
  5
1F
330
1
100
AcDbSymbolTableRecord
100
AcDbBlockTableRecord
  2
*Model_Space
340
22
  0
BLOCK_RECORD
  5
1B
330
1
100
AcDbSymbolTableRecord
100
AcDbBlockTableRecord
  2
*Paper_Space
340
1E
  0
BLOCK_RECORD
  5
23
330
1
100
AcDbSymbolTableRecord
100
AcDbBlockTableRecord
  2
*Paper_Space0
340
26
  0
BLOCK_RECORD
  5
47
330
1
100
AcDbSymbolTableRecord
100
AcDbBlockTableRecord
  2
_formato_A4
340
0
102
{BLKREFS
331
4B
102
}
  0
BLOCK_RECORD
  5
4A
330
1
100
AcDbSymbolTableRecord
100
AcDbBlockTableRecord
  2
A4_oriz
340
0
102
{BLKREFS
331
4E
102
}
  0
BLOCK_RECORD
  5
1DA
330
1
100
AcDbSymbolTableRecord
100
AcDbBlockTableRecord
  2
*D3
340
0
  0
BLOCK_RECORD
  5
1E6
330
1
100
AcDbSymbolTableRecord
100
AcDbBlockTableRecord
  2
*D4
340
0
  0
BLOCK_RECORD
  5
1F1
330
1
100
AcDbSymbolTableRecord
100
AcDbBlockTableRecord
  2
*D5
340
0
  0
BLOCK_RECORD
  5
1FC
330
1
100
AcDbSymbolTableRecord
100
AcDbBlockTableRecord
  2
*D6
340
0
  0
BLOCK_RECORD
  5
207
330
1
100
AcDbSymbolTableRecord
100
AcDbBlockTableRecord
  2
*D7
340
0
  0
ENDTAB
  0
ENDSEC
  0
SECTION
  2
BLOCKS
  0
BLOCK
  5
20
330
1F
100
AcDbEntity
  8
0
100
AcDbBlockBegin
  2
*Model_Space
 70
     0
 10
0.0
 20
0.0
 30
0.0
  3
*Model_Space
  1

  0
ENDBLK
  5
21
330
1F
100
AcDbEntity
  8
0
100
AcDbBlockEnd
  0
BLOCK
  5
1C
330
1B
100
AcDbEntity
 67
     1
  8
0
100
AcDbBlockBegin
  2
*Paper_Space
 70
     0
 10
0.0
 20
0.0
 30
0.0
  3
*Paper_Space
  1

  0
ENDBLK
  5
1D
330
1B
100
AcDbEntity
 67
     1
  8
0
100
AcDbBlockEnd
  0
BLOCK
  5
24
330
23
100
AcDbEntity
  8
0
100
AcDbBlockBegin
  2
*Paper_Space0
 70
     0
 10
0.0
 20
0.0
 30
0.0
  3
*Paper_Space0
  1

  0
ENDBLK
  5
25
330
23
100
AcDbEntity
  8
0
100
AcDbBlockEnd
  0
BLOCK
  5
48
330
47
100
AcDbEntity
  8
0
100
AcDbBlockBegin
  2
_formato_A4
 70
     0
 10
0.0
 20
0.0
 30
0.0
  3
_formato_A4
  1

  0
LINE
  5
4F
330
47
100
AcDbEntity
  8
1
  6
Continuous
 62
     7
100
AcDbLine
 10
-189.0
 20
4.99999999999989
 30
0.0
 11
-189.0
 21
40.0
 31
0.0
  0
LINE
  5
50
330
47
100
AcDbEntity
  8
1
  6
Continuous
 62
     7
100
AcDbLine
 10
-189.0
 20
20.0
 30
0.0
 11
-5.0
 21
20.0
 31
0.0
  0
LINE
  5
51
330
47
100
AcDbEntity
  8
1
  6
Continuous
 62
     7
100
AcDbLine
 10
-292.0000000000002
 20
189.0
 30
0.0
 11
-292.0000000000002
 21
5.0
 31
0.0
  0
LINE
  5
52
330
47
100
AcDbEntity
  8
1
  6
Continuous
 62
     7
100
AcDbLine
 10
-163.9999999999999
 20
35.0
 30
0.0
 11
-163.9999999999999
 21
40.0
 31
0.0
  0
LINE
  5
53
330
47
100
AcDbEntity
  8
1
  6
Continuous
 62
     7
100
AcDbLine
 10
-182.0
 20
35.0
 30
0.0
 11
-182.0
 21
40.0
 31
0.0
  0
LINE
  5
54
330
47
100
AcDbEntity
  8
1
  6
Continuous
 62
     7
100
AcDbLine
 10
-189.0
 20
40.0
 30
0.0
 11
-5.0
 21
40.0
 31
0.0
  0
LINE
  5
55
330
47
100
AcDbEntity
  8
1
  6
Continuous
 62
     7
100
AcDbLine
 10
-163.9999999999999
 20
30.0
 30
0.0
 11
-163.9999999999999
 21
35.0
 31
0.0
  0
LINE
  5
56
330
47
100
AcDbEntity
  8
1
  6
Continuous
 62
     7
100
AcDbLine
 10
-182.0
 20
30.0
 30
0.0
 11
-182.0
 21
35.0
 31
0.0
  0
LINE
  5
57
330
47
100
AcDbEntity
  8
1
  6
Continuous
 62
     7
100
AcDbLine
 10
-189.0
 20
35.0
 30
0.0
 11
-5.0
 21
35.0
 31
0.0
  0
LINE
  5
58
330
47
100
AcDbEntity
  8
1
  6
Continuous
 62
     7
100
AcDbLine
 10
-163.9999999999999
 20
25.0
 30
0.0
 11
-163.9999999999999
 21
30.0
 31
0.0
  0
LINE
  5
59
330
47
100
AcDbEntity
  8
1
  6
Continuous
 62
     7
100
AcDbLine
 10
-182.0
 20
25.0
 30
0.0
 11
-182.0
 21
30.0
 31
0.0
  0
LINE
  5
5A
330
47
100
AcDbEntity
  8
1
  6
Continuous
 62
     7
100
AcDbLine
 10
-189.0
 20
30.0
 30
0.0
 11
-5.0
 21
30.0
 31
0.0
  0
LINE
  5
5B
330
47
100
AcDbEntity
  8
1
  6
Continuous
 62
     7
100
AcDbLine
 10
-163.9999999999999
 20
20.0
 30
0.0
 11
-163.9999999999999
 21
25.0
 31
0.0
  0
LINE
  5
5C
330
47
100
AcDbEntity
  8
1
  6
Continuous
 62
     7
100
AcDbLine
 10
-182.0
 20
20.0
 30
0.0
 11
-182.0
 21
25.0
 31
0.0
  0
LINE
  5
5D
330
47
100
AcDbEntity
  8
1
  6
Continuous
 62
     7
100
AcDbLine
 10
-189.0
 20
25.0
 30
0.0
 11
-5.0
 21
25.0
 31
0.0
  0
LINE
  5
5E
102
{ACAD_REACTORS
330
9F
102
}
330
47
100
AcDbEntity
  8
1
  6
Continuous
 62
     7
100
AcDbLine
 10
-14.15712516009421
 20
10.55800208038033
 30
0.0
 11
-15.49045849342747
 21
9.78877131114973
 31
0.0
  0
LINE
  5
5F
102
{ACAD_REACTORS
330
9F
102
}
330
47
100
AcDbEntity
  8
1
  6
Continuous
 62
     7
100
AcDbLine
 10
-15.32369931125732
 20
10.65463653264794
 30
0.0
 11
-14.49027346242053
 21
11.13545913774624
 31
0.0
  0
LINE
  5
60
102
{ACAD_REACTORS
330
9F
102
}
330
47
100
AcDbEntity
  8
1
  6
Continuous
 62
     7
100
AcDbLine
 10
-15.32369931125732
 20
12.16666666666663
 30
0.0
 11
-15.32369931125732
 21
10.65463653264794
 31
0.0
  0
LINE
  5
61
102
{ACAD_REACTORS
330
9F
102
}
330
47
100
AcDbEntity
  8
1
  6
Continuous
 62
     7
100
AcDbLine
 10
-14.32369931125732
 20
12.16666666666663
 30
0.0
 11
-15.32369931125732
 21
12.16666666666663
 31
0.0
  0
LINE
  5
62
102
{ACAD_REACTORS
330
9F
102
}
330
47
100
AcDbEntity
  8
1
  6
Continuous
 62
     7
100
AcDbLine
 10
-15.32369931125732
 20
12.83333333333326
 30
0.0
 11
-14.32369931125732
 21
12.83333333333326
 31
0.0
  0
LINE
  5
63
102
{ACAD_REACTORS
330
9F
102
}
330
47
100
AcDbEntity
  8
1
  6
Continuous
 62
     7
100
AcDbLine
 10
-15.32369931125732
 20
14.34536346735195
 30
0.0
 11
-15.32369931125732
 21
12.83333333333326
 31
0.0
  0
LINE
  5
64
102
{ACAD_REACTORS
330
9F
102
}
330
47
100
AcDbEntity
  8
1
  6
Continuous
 62
     7
100
AcDbLine
 10
-14.49027346242053
 20
13.86454086225376
 30
0.0
 11
-15.32369931125732
 21
14.34536346735195
 31
0.0
  0
LINE
  5
65
102
{ACAD_REACTORS
330
9F
102
}
330
47
100
AcDbEntity
  8
1
  6
Continuous
 62
     7
100
AcDbLine
 10
-15.49045849342747
 20
15.21122868885027
 30
0.0
 11
-14.15712516009421
 21
14.44199791961944
 31
0.0
  0
LINE
  5
66
102
{ACAD_REACTORS
330
A0
102
}
330
47
100
AcDbEntity
  8
1
  6
Continuous
 62
     7
100
AcDbLine
 10
-22.65703264459069
 20
10.84673060906323
 30
0.0
 11
-22.65703264459069
 21
14.15326939093666
 31
0.0
  0
LINE
  5
67
102
{ACAD_REACTORS
330
A0
102
}
330
47
100
AcDbEntity
  8
1
  6
Continuous
 62
     7
100
AcDbLine
 10
-21.99036597792406
 20
11.0392519172633
 30
0.0
 11
-21.99036597792406
 21
10.84673060906323
 31
0.0
  0
LINE
  5
68
102
{ACAD_REACTORS
330
A0
102
}
330
47
100
AcDbEntity
  8
1
  6
Continuous
 62
     7
100
AcDbLine
 10
-21.99036597792406
 20
14.15326939093666
 30
0.0
 11
-21.99036597792406
 21
11.0392519172633
 31
0.0
  0
LINE
  5
69
102
{ACAD_REACTORS
330
A1
102
}
330
47
100
AcDbEntity
  8
1
  6
Continuous
 62
     7
100
AcDbLine
 10
-18.8236067957539
 20
8.44261746499581
 30
0.0
 11
-20.99018094691701
 21
9.69256409066691
 31
0.0
  0
LINE
  5
6A
102
{ACAD_REACTORS
330
A1
102
}
330
47
100
AcDbEntity
  8
1
  6
Continuous
 62
     7
100
AcDbLine
 10
-20.65703264459069
 20
10.2700211480327
 30
0.0
 11
-18.49045849342747
 21
9.0200745223616
 31
0.0
  0
LINE
  5
6B
102
{ACAD_REACTORS
330
A1
102
}
330
47
100
AcDbEntity
  8
1
  6
Continuous
 62
     7
100
AcDbLine
 10
-20.65703264459069
 20
14.92250016016737
 30
0.0
 11
-20.65703264459069
 21
10.2700211480327
 31
0.0
  0
LINE
  5
6C
102
{ACAD_REACTORS
330
A1
102
}
330
47
100
AcDbEntity
  8
1
  6
Continuous
 62
     7
100
AcDbLine
 10
-21.32369931125732
 20
10.27002114803258
 30
0.0
 11
-21.32369931125732
 21
14.92250016016737
 31
0.0
  0
LINE
  5
6D
102
{ACAD_REACTORS
330
A2
102
}
330
47
100
AcDbEntity
  8
1
  6
Continuous
 62
     7
100
AcDbLine
 10
-17.15146632821404
 20
15.86370041827229
 30
0.0
 11
-18.32369931125732
 21
13.83333333333326
 31
0.0
  0
LINE
  5
6E
102
{ACAD_REACTORS
330
A2
102
}
330
47
100
AcDbEntity
  8
1
  6
Continuous
 62
     7
100
AcDbLine
 10
-16.65703264459069
 20
9.3082690706018
 30
0.0
 11
-16.65703264459069
 21
15.73121731203457
 31
0.0
  0
LINE
  5
6F
102
{ACAD_REACTORS
330
A2
102
}
330
47
100
AcDbEntity
  8
1
  6
Continuous
 62
     7
100
AcDbLine
 10
-17.32369931125732
 20
12.5
 30
0.0
 11
-17.32369931125732
 21
9.3082690706018
 31
0.0
  0
LINE
  5
70
102
{ACAD_REACTORS
330
A2
102
}
330
47
100
AcDbEntity
  8
1
  6
Continuous
 62
     7
100
AcDbLine
 10
-19.32369931125732
 20
10.84758507263291
 30
0.0
 11
-19.32369931125732
 21
12.5
 31
0.0
  0
LINE
  5
71
102
{ACAD_REACTORS
330
A2
102
}
330
47
100
AcDbEntity
  8
1
  6
Continuous
 62
     7
100
AcDbLine
 10
-19.99036597792406
 20
12.5
 30
0.0
 11
-19.99036597792406
 21
10.84758507263291
 31
0.0
  0
LINE
  5
72
102
{ACAD_REACTORS
330
A2
102
}
330
47
100
AcDbEntity
  8
1
  6
Continuous
 62
     7
100
AcDbLine
 10
-19.49593229430059
 20
15.86370041827229
 30
0.0
 11
-18.32369931125732
 21
13.83333333333326
 31
0.0
  0
LINE
  5
73
102
{ACAD_REACTORS
330
A2
102
}
330
47
100
AcDbEntity
  8
1
  6
Continuous
 62
     7
100
AcDbLine
 10
-19.99036597792406
 20
12.5
 30
0.0
 11
-19.99036597792406
 21
15.73121731203457
 31
0.0
  0
LINE
  5
74
330
47
100
AcDbEntity
  8
1
  6
Continuous
 62
     7
100
AcDbLine
 10
-18.32369931125732
 20
7.5
 30
0.0
 11
-26.74013458639888
 21
12.35563573565855
 31
0.0
  0
LINE
  5
75
330
47
100
AcDbEntity
  8
1
  6
Continuous
 62
     7
100
AcDbLine
 10
-9.90726403611586
 20
12.35563573565855
 30
0.0
 11
-18.32369931125732
 21
7.5
 31
0.0
  0
LINE
  5
76
330
47
100
AcDbEntity
  8
1
  6
Continuous
 62
     7
100
AcDbLine
 10
-18.32369931125732
 20
17.5
 30
0.0
 11
-9.90726403611586
 21
12.64436426434133
 31
0.0
  0
LINE
  5
77
330
47
100
AcDbEntity
  8
1
  6
Continuous
 62
     7
100
AcDbLine
 10
-26.74013458639888
 20
12.64436426434133
 30
0.0
 11
-18.32369931125732
 21
17.5
 31
0.0
  0
LINE
  5
78
102
{ACAD_REACTORS
330
A2
102
}
330
47
100
AcDbEntity
  8
1
  6
Continuous
 62
     7
100
AcDbLine
 10
-19.32369931125732
 20
14.23205080756884
 30
0.0
 11
-19.32369931125732
 21
12.5
 31
0.0
  0
LINE
  5
79
102
{ACAD_REACTORS
330
A2
102
}
330
47
100
AcDbEntity
  8
1
  6
Continuous
 62
     7
100
AcDbLine
 10
-18.46803687855481
 20
12.75
 30
0.0
 11
-19.32369931125732
 21
14.23205080756884
 31
0.0
  0
LINE
  5
7A
102
{ACAD_REACTORS
330
A2
102
}
330
47
100
AcDbEntity
  8
1
  6
Continuous
 62
     7
100
AcDbLine
 10
-17.32369931125732
 20
14.23205080756884
 30
0.0
 11
-18.17936174395993
 21
12.75
 31
0.0
  0
LINE
  5
7B
102
{ACAD_REACTORS
330
A2
102
}
330
47
100
AcDbEntity
  8
1
  6
Continuous
 62
     7
100
AcDbLine
 10
-17.32369931125732
 20
12.5
 30
0.0
 11
-17.32369931125732
 21
14.23205080756884
 31
0.0
  0
LINE
  5
7C
102
{ACAD_REACTORS
330
9F
102
}
330
47
100
AcDbEntity
  8
1
  6
Continuous
 62
     7
100
AcDbLine
 10
-15.99036597792394
 20
10.07749983983263
 30
0.0
 11
-15.99036597792394
 21
14.92250016016737
 31
0.0
  0
LINE
  5
7D
330
47
100
AcDbEntity
  8
1
  6
Continuous
 62
     7
100
AcDbLine
 10
-5.0
 20
189.0
 30
0.0
 11
-292.0000000000002
 21
189.0
 31
0.0
  0
LINE
  5
7E
330
47
100
AcDbEntity
  8
1
  6
Continuous
 62
     7
100
AcDbLine
 10
-5.0
 20
5.0
 30
0.0
 11
-5.0
 21
189.0
 31
0.0
  0
LINE
  5
7F
330
47
100
AcDbEntity
  8
1
  6
Continuous
 62
     7
100
AcDbLine
 10
-292.0000000000002
 20
5.0
 30
0.0
 11
-5.0
 21
5.0
 31
0.0
  0
LINE
  5
80
330
47
100
AcDbEntity
  8
1
  6
Continuous
 62
     7
100
AcDbLine
 10
0.0
 20
0.0
 30
0.0
 11
0.0
 21
210.0000000000001
 31
0.0
  0
LINE
  5
81
330
47
100
AcDbEntity
  8
1
  6
Continuous
 62
     7
100
AcDbLine
 10
0.0
 20
210.0000000000001
 30
0.0
 11
-297.0000000000001
 21
210.0000000000001
 31
0.0
  0
LINE
  5
82
330
47
100
AcDbEntity
  8
1
  6
Continuous
 62
     7
100
AcDbLine
 10
-297.0000000000001
 20
210.0000000000001
 30
0.0
 11
-297.0000000000001
 21
0.0
 31
0.0
  0
LINE
  5
83
330
47
100
AcDbEntity
  8
1
  6
Continuous
 62
     7
100
AcDbLine
 10
-297.0000000000001
 20
0.0
 30
0.0
 11
0.0
 21
0.0
 31
0.0
  0
LINE
  5
84
330
47
100
AcDbEntity
  8
1
  6
Continuous
 62
     7
100
AcDbLine
 10
-148.5000000000003
 20
210.0000000000001
 30
0.0
 11
-148.5000000000003
 21
195.0000000000001
 31
0.0
  0
LINE
  5
85
330
47
100
AcDbEntity
  8
1
  6
Continuous
 62
     7
100
AcDbLine
 10
-189.0
 20
12.5
 30
0.0
 11
-159.0
 21
12.5
 31
0.0
  0
LINE
  5
86
330
47
100
AcDbEntity
  8
1
  6
Continuous
 62
     7
100
AcDbLine
 10
-159.0
 20
20.0
 30
0.0
 11
-159.0
 21
5.0
 31
0.0
  0
LINE
  5
87
330
47
100
AcDbEntity
  8
1
  6
Continuous
 62
     7
100
AcDbLine
 10
-31.64739862251463
 20
20.0
 30
0.0
 11
-31.64739862251463
 21
5.0
 31
0.0
  0
LINE
  5
88
330
47
100
AcDbEntity
  8
1
  6
Continuous
 62
     7
100
AcDbLine
 10
-49.0
 20
20.0
 30
0.0
 11
-49.0
 21
5.0
 31
0.0
  0
ARC
  5
89
102
{ACAD_REACTORS
330
9F
102
}
330
47
100
AcDbEntity
  8
1
  6
Continuous
 62
     7
100
AcDbCircle
 10
-14.32369931125732
 20
10.84673060906323
 30
0.0
 40
0.3333333333333198
100
AcDbArc
 50
299.9816393688342
 51
119.9816393688397
  0
ARC
  5
8A
102
{ACAD_REACTORS
330
9F
102
}
330
47
100
AcDbEntity
  8
1
  6
Continuous
 62
     7
100
AcDbCircle
 10
-14.32369931125732
 20
12.5
 30
0.0
 40
0.3333333333333695
100
AcDbArc
 50
270.0
 51
90.0
  0
ARC
  5
8B
102
{ACAD_REACTORS
330
9F
102
}
330
47
100
AcDbEntity
  8
1
  6
Continuous
 62
     7
100
AcDbCircle
 10
-14.32369931125732
 20
14.15326939093666
 30
0.0
 40
0.333333333333372
100
AcDbArc
 50
240.0183606311508
 51
60.01836063115558
  0
ARC
  5
8C
102
{ACAD_REACTORS
330
A0
102
}
330
47
100
AcDbEntity
  8
1
  6
Continuous
 62
     7
100
AcDbCircle
 10
-22.32369931125732
 20
10.84673060906323
 30
0.0
 40
0.3333333333333677
100
AcDbArc
 50
180.0
 51
0.0
  0
ARC
  5
8D
102
{ACAD_REACTORS
330
A0
102
}
330
47
100
AcDbEntity
  8
1
  6
Continuous
 62
     7
100
AcDbCircle
 10
-22.32369931125732
 20
14.15326939093666
 30
0.0
 40
0.3333333333332611
100
AcDbArc
 50
0.0
 51
180.0
  0
ARC
  5
8E
102
{ACAD_REACTORS
330
A1
102
}
330
47
100
AcDbEntity
  8
1
  6
Continuous
 62
     7
100
AcDbCircle
 10
-18.65703264459069
 20
8.7313459936787
 30
0.0
 40
0.3333333333333673
100
AcDbArc
 50
240.0183606311504
 51
60.01836063114937
  0
ARC
  5
8F
102
{ACAD_REACTORS
330
A1
102
}
330
47
100
AcDbEntity
  8
1
  6
Continuous
 62
     7
100
AcDbCircle
 10
-20.99036597792406
 20
14.92250016016737
 30
0.0
 40
0.3333333333333712
100
AcDbArc
 50
0.0
 51
180.0
  0
ARC
  5
90
102
{ACAD_REACTORS
330
A2
102
}
330
47
100
AcDbEntity
  8
1
  6
Continuous
 62
     7
100
AcDbCircle
 10
-16.921998857066
 20
15.73121731203457
 30
0.0
 40
0.2649662124753114
100
AcDbArc
 50
0.0
 51
149.9999999999743
  0
ARC
  5
91
102
{ACAD_REACTORS
330
A2
102
}
330
47
100
AcDbEntity
  8
1
  6
Continuous
 62
     7
100
AcDbCircle
 10
-16.99036597792394
 20
9.3082690706018
 30
0.0
 40
0.3333333333333819
100
AcDbArc
 50
180.0
 51
0.0
  0
ARC
  5
92
102
{ACAD_REACTORS
330
A2
102
}
330
47
100
AcDbEntity
  8
1
  6
Continuous
 62
     7
100
AcDbCircle
 10
-19.65703264459069
 20
10.84758507263291
 30
0.0
 40
0.3333333333333712
100
AcDbArc
 50
180.0
 51
0.0
  0
ARC
  5
93
102
{ACAD_REACTORS
330
A2
102
}
330
47
100
AcDbEntity
  8
1
  6
Continuous
 62
     7
100
AcDbCircle
 10
-19.72539976544874
 20
15.73121731203457
 30
0.0
 40
0.2649662124753284
100
AcDbArc
 50
30.00000000001384
 51
180.0
  0
ARC
  5
94
102
{ACAD_REACTORS
330
9F
102
}
330
47
100
AcDbEntity
  8
1
  6
Continuous
 62
     7
100
AcDbCircle
 10
-15.65703264459069
 20
10.07749983983263
 30
0.0
 40
0.3333333333332504
100
AcDbArc
 50
180.0
 51
299.9816393688506
  0
ARC
  5
95
102
{ACAD_REACTORS
330
9F
102
}
330
47
100
AcDbEntity
  8
1
  6
Continuous
 62
     7
100
AcDbCircle
 10
-15.65703264459069
 20
14.92250016016737
 30
0.0
 40
0.3333333333333749
100
AcDbArc
 50
60.01836063114941
 51
180.0
  0
ARC
  5
96
330
47
100
AcDbEntity
  8
1
  6
Continuous
 62
     7
100
AcDbCircle
 10
-9.99055111169741
 20
12.5
 30
0.0
 40
0.1666666666666586
100
AcDbArc
 50
299.9816393688334
 51
60.01836063114615
  0
ARC
  5
97
330
47
100
AcDbEntity
  8
1
  6
Continuous
 62
     7
100
AcDbCircle
 10
-26.65684751081722
 20
12.5
 30
0.0
 40
0.1666666666666105
100
AcDbArc
 50
119.9816393688866
 51
240.0183606311338
  0
ARC
  5
98
102
{ACAD_REACTORS
330
A1
102
}
330
47
100
AcDbEntity
  8
1
  6
Continuous
 62
     7
100
AcDbCircle
 10
-20.65703264459069
 20
10.2700211480327
 30
0.0
 40
0.6666666666666323
100
AcDbArc
 50
180.0000000000104
 51
240.018360631158
  0
ARC
  5
99
102
{ACAD_REACTORS
330
A2
102
}
330
47
100
AcDbEntity
  8
1
  6
Continuous
 62
     7
100
AcDbCircle
 10
-18.32369931125732
 20
12.83333333333326
 30
0.0
 40
0.1666666666666997
100
AcDbArc
 50
209.999999999964
 51
330.0000000000195
  0
MTEXT
  5
9B
330
47
100
AcDbEntity
  8
1
 62
     7
100
AcDbMText
 10
-40.32369931125732
 20
16.26063942075598
 30
0.0
 40
3.0
 41
0.0
 71
     5
 72
     1
  1
Scale
  7
CONVERTER_11
 73
     1
 44
1.32052821128451
  0
MTEXT
  5
9C
330
47
100
AcDbEntity
  8
1
 62
     7
100
AcDbMText
 10
-187.0
 20
8.75
 30
0.0
 40
3.0
 41
0.0
 71
     4
 72
     1
  1
Sign.
  7
CONVERTER_11
 73
     1
 44
1.32052821128451
  0
MTEXT
  5
9D
330
47
100
AcDbEntity
  8
1
 62
     7
100
AcDbMText
 10
-187.0
 20
16.26063942075598
 30
0.0
 40
3.0
 41
0.0
 71
     4
 72
     1
  1
Date
  7
CONVERTER_11
 73
     1
 44
1.32052821128451
  0
MTEXT
  5
9E
330
47
100
AcDbEntity
  8
1
 62
     7
100
AcDbMText
 10
-145.5000000000003
 20
194.0000000000001
 30
0.0
 40
4.0
 41
0.0
 71
     5
 72
     1
  1
Diritti riservati      All rights reserved
  7
CONVERTER_11
 73
     1
 44
1.32052821128451
  0
HATCH
  5
9F
330
47
100
AcDbEntity
  8
1
  6
Continuous
 62
     7
100
AcDbHatch
 10
0.0
 20
0.0
 30
0.0
210
0.0
220
0.0
230
1.0
  2
SOLID
 70
     1
 71
     1
 91
        1
 92
        1
 93
       14
 72
     2
 10
-15.65703264459069
 20
14.92250016016737
 40
0.3333333333333749
 50
60.01836063114941
 51
180.0
 73
     1
 72
     1
 10
-15.99036597792394
 20
14.92250016016737
 11
-15.99036597792394
 21
10.07749983983263
 72
     2
 10
-15.65703264459069
 20
10.07749983983263
 40
0.3333333333332504
 50
180.0
 51
299.9816393688506
 73
     1
 72
     1
 10
-15.49045849342747
 20
9.78877131114973
 11
-14.15712516009421
 21
10.55800208038033
 72
     2
 10
-14.32369931125732
 20
10.84673060906323
 40
0.3333333333333198
 50
299.9816393688342
 51
479.9816393688396
 73
     1
 72
     1
 10
-14.49027346242053
 20
11.13545913774624
 11
-15.32369931125732
 21
10.65463653264794
 72
     1
 10
-15.32369931125732
 20
10.65463653264794
 11
-15.32369931125732
 21
12.16666666666663
 72
     1
 10
-15.32369931125732
 20
12.16666666666663
 11
-14.32369931125732
 21
12.16666666666663
 72
     2
 10
-14.32369931125732
 20
12.5
 40
0.3333333333333695
 50
270.0
 51
450.0
 73
     1
 72
     1
 10
-14.32369931125732
 20
12.83333333333326
 11
-15.32369931125732
 21
12.83333333333326
 72
     1
 10
-15.32369931125732
 20
12.83333333333326
 11
-15.32369931125732
 21
14.34536346735195
 72
     1
 10
-15.32369931125732
 20
14.34536346735195
 11
-14.49027346242053
 21
13.86454086225376
 72
     2
 10
-14.32369931125732
 20
14.15326939093666
 40
0.333333333333372
 50
240.0183606311508
 51
420.0183606311556
 73
     1
 72
     1
 10
-14.15712516009421
 20
14.44199791961944
 11
-15.49045849342747
 21
15.21122868885027
 97
       14
330
8B
330
64
330
63
330
62
330
8A
330
61
330
60
330
5F
330
89
330
5E
330
94
330
7C
330
95
330
65
 75
     0
 76
     1
 98
        1
 10
0.0
 20
0.0
  0
HATCH
  5
A0
330
47
100
AcDbEntity
  8
1
  6
Continuous
 62
     7
100
AcDbHatch
 10
0.0
 20
0.0
 30
0.0
210
0.0
220
0.0
230
1.0
  2
SOLID
 70
     1
 71
     1
 91
        1
 92
        1
 93
        5
 72
     2
 10
-22.32369931125732
 20
14.15326939093666
 40
0.3333333333332611
 50
0.0
 51
180.0
 73
     1
 72
     1
 10
-22.65703264459069
 20
14.15326939093666
 11
-22.65703264459069
 21
10.84673060906323
 72
     2
 10
-22.32369931125732
 20
10.84673060906323
 40
0.3333333333333677
 50
180.0
 51
360.0
 73
     1
 72
     1
 10
-21.99036597792406
 20
10.84673060906323
 11
-21.99036597792406
 21
11.0392519172633
 72
     1
 10
-21.99036597792406
 20
11.0392519172633
 11
-21.99036597792406
 21
14.15326939093666
 97
        5
330
8D
330
66
330
8C
330
67
330
68
 75
     0
 76
     1
 98
        1
 10
0.0
 20
0.0
  0
HATCH
  5
A1
330
47
100
AcDbEntity
  8
1
  6
Continuous
 62
     7
100
AcDbHatch
 10
0.0
 20
0.0
 30
0.0
210
0.0
220
0.0
230
1.0
  2
SOLID
 70
     1
 71
     1
 91
        1
 92
        1
 93
        7
 72
     2
 10
-20.99036597792406
 20
14.92250016016737
 40
0.3333333333333712
 50
0.0
 51
180.0
 73
     1
 72
     1
 10
-21.32369931125732
 20
14.92250016016737
 11
-21.32369931125732
 21
10.27002114803258
 72
     2
 10
-20.65703264459069
 20
10.2700211480327
 40
0.6666666666666323
 50
180.0000000000104
 51
240.018360631158
 73
     1
 72
     1
 10
-20.99018094691701
 20
9.692564090666906
 11
-18.8236067957539
 21
8.442617464995806
 72
     2
 10
-18.65703264459069
 20
8.731345993678701
 40
0.3333333333333673
 50
240.0183606311504
 51
420.0183606311494
 73
     1
 72
     1
 10
-18.49045849342747
 20
9.020074522361597
 11
-20.65703264459069
 21
10.2700211480327
 72
     1
 10
-20.65703264459069
 20
10.2700211480327
 11
-20.65703264459069
 21
14.92250016016737
 97
        7
330
8F
330
6C
330
98
330
69
330
8E
330
6A
330
6B
 75
     0
 76
     1
 98
        1
 10
0.0
 20
0.0
  0
HATCH
  5
A2
330
47
100
AcDbEntity
  8
1
  6
Continuous
 62
     7
100
AcDbHatch
 10
0.0
 20
0.0
 30
0.0
210
0.0
220
0.0
230
1.0
  2
SOLID
 70
     1
 71
     1
 91
        1
 92
        1
 93
       16
 72
     2
 10
-16.921998857066
 20
15.73121731203457
 40
0.2649662124753114
 50
210.0000000000258
 51
360.0
 73
     0
 72
     1
 10
-16.65703264459069
 20
15.73121731203457
 11
-16.65703264459069
 21
9.308269070601796
 72
     2
 10
-16.99036597792394
 20
9.308269070601796
 40
0.3333333333333819
 50
0.0
 51
180.0
 73
     0
 72
     1
 10
-17.32369931125732
 20
9.308269070601796
 11
-17.32369931125732
 21
12.5
 72
     1
 10
-17.32369931125732
 20
12.5
 11
-17.32369931125732
 21
14.23205080756884
 72
     1
 10
-17.32369931125732
 20
14.23205080756884
 11
-18.17936174395993
 21
12.75
 72
     2
 10
-18.32369931125732
 20
12.83333333333326
 40
0.1666666666666997
 50
29.99999999998053
 51
150.000000000036
 73
     0
 72
     1
 10
-18.46803687855481
 20
12.75
 11
-19.32369931125732
 21
14.23205080756884
 72
     1
 10
-19.32369931125732
 20
14.23205080756884
 11
-19.32369931125732
 21
12.5
 72
     1
 10
-19.32369931125732
 20
12.5
 11
-19.32369931125732
 21
10.84758507263291
 72
     2
 10
-19.65703264459069
 20
10.84758507263291
 40
0.3333333333333712
 50
0.0
 51
180.0
 73
     0
 72
     1
 10
-19.99036597792406
 20
10.84758507263291
 11
-19.99036597792406
 21
12.5
 72
     1
 10
-19.99036597792406
 20
12.5
 11
-19.99036597792406
 21
15.73121731203457
 72
     2
 10
-19.72539976544874
 20
15.73121731203457
 40
0.2649662124753284
 50
180.0
 51
329.9999999999862
 73
     0
 72
     1
 10
-19.49593229430059
 20
15.86370041827229
 11
-18.32369931125732
 21
13.83333333333326
 72
     1
 10
-18.32369931125732
 20
13.83333333333326
 11
-17.15146632821404
 21
15.86370041827229
 97
       16
330
72
330
93
330
73
330
71
330
92
330
70
330
78
330
79
330
99
330
7A
330
7B
330
6F
330
91
330
6E
330
90
330
6D
 75
     0
 76
     1
 98
        1
 10
0.0
 20
0.0
  0
ENDBLK
  5
49
330
47
100
AcDbEntity
  8
0
100
AcDbBlockEnd
  0
BLOCK
  5
4C
330
4A
100
AcDbEntity
  8
0
100
AcDbBlockBegin
  2
A4_oriz
 70
     0
 10
0.0
 20
0.0
 30
0.0
  3
A4_oriz
  1

  0
INSERT
  5
4B
330
4A
100
AcDbEntity
  8
1
100
AcDbBlockReference
  2
_formato_A4
 10
0.0
 20
0.0
 30
0.0
  0
ENDBLK
  5
4D
330
4A
100
AcDbEntity
  8
0
100
AcDbBlockEnd
  0
BLOCK
  5
1E2
330
1DA
100
AcDbEntity
  8
0
100
AcDbBlockBegin
  2
*D3
 70
     1
 10
0.0
 20
0.0
 30
0.0
  3
*D3
  1

  0
LINE
  5
1DB
330
1DA
100
AcDbEntity
  8
1
  6
Continuous
 62
     2
100
AcDbLine
 10
-155.2437249234383
 20
146.286274656032
 30
0.0
 11
-150.9025204817641
 21
121.666080830727
 31
0.0
  0
LINE
  5
1DC
330
1DA
100
AcDbEntity
  8
1
  6
Continuous
 62
     2
100
AcDbLine
 10
-164.6768648619143
 20
144.6229575720797
 30
0.0
 11
-154.2589171704261
 21
146.459922833699
 31
0.0
  0
LINE
  5
1DD
330
1DA
100
AcDbEntity
  8
1
  6
Continuous
 62
     2
100
AcDbLine
 10
-160.3356604202401
 20
120.0027637467747
 30
0.0
 11
-149.9177127287519
 21
121.839729008394
 31
0.0
  0
SOLID
  5
1DE
330
1DA
100
AcDbEntity
  8
1
 62
     2
100
AcDbTrace
 10
-154.333823189455
 20
143.4004350458695
 30
0.0
 11
-155.1117375914199
 21
143.2632677481213
 31
0.0
 12
-155.2437249234383
 22
146.286274656032
 32
0.0
 13
-155.2437249234383
 23
146.286274656032
 33
0.0
  0
SOLID
  5
1DF
330
1DA
100
AcDbEntity
  8
1
 62
     2
100
AcDbTrace
 10
-151.8124222157475
 20
124.5519204408895
 30
0.0
 11
-151.0345078137825
 21
124.6890877386377
 31
0.0
 12
-150.9025204817641
 22
121.666080830727
 32
0.0
 13
-150.9025204817641
 23
121.666080830727
 33
0.0
  0
MTEXT
  5
1E1
330
1DA
100
AcDbEntity
  8
1
 62
     4
100
AcDbMText
 10
-151.5827761669376
 20
137.0415434970271
 30
0.0
 40
3.0
 41
0.0
 71
     7
 72
     1
  1
\C4;M\C4;25
  7
CONVERTER_12
 11
0.1736481776669694
 21
-0.9848077530122012
 31
0.0
 73
     1
 44
0.60024009603842
  0
ENDBLK
  5
1E3
330
1DA
100
AcDbEntity
  8
0
100
AcDbBlockEnd
  0
BLOCK
  5
1ED
330
1E6
100
AcDbEntity
  8
0
100
AcDbBlockBegin
  2
*D4
 70
     1
 10
0.0
 20
0.0
 30
0.0
  3
*D4
  1

  0
LINE
  5
1E7
330
1E6
100
AcDbEntity
  8
1
  6
Continuous
 62
     2
100
AcDbLine
 10
-231.161477844694
 20
66.6270889796666
 30
0.0
 11
-171.1694264883594
 21
66.6270889796666
 31
0.0
  0
LINE
  5
1E8
330
1E6
100
AcDbEntity
  8
1
  6
Continuous
 62
     2
100
AcDbLine
 10
-231.161477844694
 20
80.752805400237
 30
0.0
 11
-231.161477844694
 21
65.6270889796666
 31
0.0
  0
LINE
  5
1E9
330
1E6
100
AcDbEntity
  8
1
  6
Continuous
 62
     2
100
AcDbLine
 10
-171.1694264883594
 20
80.752805400237
 30
0.0
 11
-171.1694264883594
 21
65.6270889796666
 31
0.0
  0
SOLID
  5
1EA
330
1E6
100
AcDbEntity
  8
1
 62
     2
100
AcDbTrace
 10
-228.161477844694
 20
67.02204647242878
 30
0.0
 11
-228.161477844694
 21
66.23213148690441
 31
0.0
 12
-231.161477844694
 22
66.6270889796666
 32
0.0
 13
-231.161477844694
 23
66.6270889796666
 33
0.0
  0
SOLID
  5
1EB
330
1E6
100
AcDbEntity
  8
1
 62
     2
100
AcDbTrace
 10
-174.1694264883594
 20
66.23213148690441
 30
0.0
 11
-174.1694264883594
 21
67.02204647242878
 31
0.0
 12
-171.1694264883594
 22
66.6270889796666
 32
0.0
 13
-171.1694264883594
 23
66.6270889796666
 33
0.0
  0
MTEXT
  5
1EC
330
1E6
100
AcDbEntity
  8
1
 62
     4
100
AcDbMText
 10
-203.4154521665267
 20
68.6270889796666
 30
0.0
 40
3.0
 41
0.0
 71
     7
 72
     1
  1
60
  7
CONVERTER_12
 11
0.9999999999970619
 21
2.424068405545306E-6
 31
0.0
 73
     1
 44
0.60024009603842
  0
ENDBLK
  5
1EE
330
1E6
100
AcDbEntity
  8
0
100
AcDbBlockEnd
  0
BLOCK
  5
1F8
330
1F1
100
AcDbEntity
  8
0
100
AcDbBlockBegin
  2
*D5
 70
     1
 10
0.0
 20
0.0
 30
0.0
  3
*D5
  1

  0
LINE
  5
1F2
330
1F1
100
AcDbEntity
  8
1
  6
Continuous
 62
     2
100
AcDbLine
 10
-237.6654521665268
 20
54.1887173199455
 30
0.0
 11
-164.6654521665268
 21
54.1887173199455
 31
0.0
  0
LINE
  5
1F3
330
1F1
100
AcDbEntity
  8
1
  6
Continuous
 62
     2
100
AcDbLine
 10
-237.6654521665268
 20
84.62511665493516
 30
0.0
 11
-237.6654521665268
 21
53.1887173199455
 31
0.0
  0
LINE
  5
1F4
330
1F1
100
AcDbEntity
  8
1
  6
Continuous
 62
     2
100
AcDbLine
 10
-164.6654521665268
 20
84.62511665493516
 30
0.0
 11
-164.6654521665268
 21
53.1887173199455
 31
0.0
  0
SOLID
  5
1F5
330
1F1
100
AcDbEntity
  8
1
 62
     2
100
AcDbTrace
 10
-234.6654521665268
 20
54.58367481270769
 30
0.0
 11
-234.6654521665268
 21
53.79375982718332
 31
0.0
 12
-237.6654521665268
 22
54.1887173199455
 32
0.0
 13
-237.6654521665268
 23
54.1887173199455
 33
0.0
  0
SOLID
  5
1F6
330
1F1
100
AcDbEntity
  8
1
 62
     2
100
AcDbTrace
 10
-167.6654521665268
 20
53.79375982718332
 30
0.0
 11
-167.6654521665268
 21
54.58367481270769
 31
0.0
 12
-164.6654521665268
 22
54.1887173199455
 32
0.0
 13
-164.6654521665268
 23
54.1887173199455
 33
0.0
  0
MTEXT
  5
1F7
330
1F1
100
AcDbEntity
  8
1
 62
     4
100
AcDbMText
 10
-203.4154521665268
 20
56.1887173199455
 30
0.0
 40
3.0
 41
0.0
 71
     7
 72
     1
  1
73
  7
CONVERTER_12
 11
0.9999999999970619
 21
2.424068405545306E-6
 31
0.0
 73
     1
 44
0.60024009603842
  0
ENDBLK
  5
1F9
330
1F1
100
AcDbEntity
  8
0
100
AcDbBlockEnd
  0
BLOCK
  5
203
330
1FC
100
AcDbEntity
  8
0
100
AcDbBlockBegin
  2
*D6
 70
     1
 10
0.0
 20
0.0
 30
0.0
  3
*D6
  1

  0
LINE
  5
1FD
330
1FC
100
AcDbEntity
  8
1
  6
Continuous
 62
     2
100
AcDbLine
 10
-42.4058303001117
 20
153.0251166549353
 30
0.0
 11
-42.4058303001117
 21
81.0251166549353
 31
0.0
  0
LINE
  5
1FE
330
1FC
100
AcDbEntity
  8
1
  6
Continuous
 62
     2
100
AcDbLine
 10
-83.74919925683398
 20
153.0251166549353
 30
0.0
 11
-41.4058303001117
 21
153.0251166549353
 31
0.0
  0
LINE
  5
1FF
330
1FC
100
AcDbEntity
  8
1
  6
Continuous
 62
     2
100
AcDbLine
 10
-63.54446062042834
 20
81.0251166549353
 30
0.0
 11
-41.4058303001117
 21
81.0251166549353
 31
0.0
  0
SOLID
  5
200
330
1FC
100
AcDbEntity
  8
1
 62
     2
100
AcDbTrace
 10
-42.01087280734951
 20
150.0251166549353
 30
0.0
 11
-42.80078779287389
 21
150.0251166549353
 31
0.0
 12
-42.4058303001117
 22
153.0251166549353
 32
0.0
 13
-42.4058303001117
 23
153.0251166549353
 33
0.0
  0
SOLID
  5
201
330
1FC
100
AcDbEntity
  8
1
 62
     2
100
AcDbTrace
 10
-42.80078779287389
 20
84.0251166549353
 30
0.0
 11
-42.01087280734951
 21
84.0251166549353
 31
0.0
 12
-42.4058303001117
 22
81.0251166549353
 32
0.0
 13
-42.4058303001117
 23
81.0251166549353
 33
0.0
  0
MTEXT
  5
202
330
1FC
100
AcDbEntity
  8
1
 62
     4
100
AcDbMText
 10
-44.4058303001117
 20
114.7751166549353
 30
0.0
 40
3.0
 41
0.0
 71
     7
 72
     1
  1
72
  7
CONVERTER_12
 11
0.0
 21
1.0
 31
0.0
 73
     1
 44
0.60024009603842
  0
ENDBLK
  5
204
330
1FC
100
AcDbEntity
  8
0
100
AcDbBlockEnd
  0
BLOCK
  5
20E
330
207
100
AcDbEntity
  8
0
100
AcDbBlockBegin
  2
*D7
 70
     1
 10
0.0
 20
0.0
 30
0.0
  3
*D7
  1

  0
LINE
  5
208
330
207
100
AcDbEntity
  8
1
  6
Continuous
 62
     2
100
AcDbLine
 10
-105.749199256834
 20
66.6646600996329
 30
0.0
 11
-62.74919925683398
 21
66.6646600996329
 31
0.0
  0
LINE
  5
209
330
207
100
AcDbEntity
  8
1
  6
Continuous
 62
     2
100
AcDbLine
 10
-105.749199256834
 20
80.75350618040592
 30
0.0
 11
-105.749199256834
 21
65.6646600996329
 31
0.0
  0
LINE
  5
20A
330
207
100
AcDbEntity
  8
1
  6
Continuous
 62
     2
100
AcDbLine
 10
-62.74919925683398
 20
80.75350618040592
 30
0.0
 11
-62.74919925683398
 21
65.6646600996329
 31
0.0
  0
SOLID
  5
20B
330
207
100
AcDbEntity
  8
1
 62
     2
100
AcDbTrace
 10
-102.749199256834
 20
67.05961759239509
 30
0.0
 11
-102.749199256834
 21
66.26970260687071
 31
0.0
 12
-105.749199256834
 22
66.6646600996329
 32
0.0
 13
-105.749199256834
 23
66.6646600996329
 33
0.0
  0
SOLID
  5
20C
330
207
100
AcDbEntity
  8
1
 62
     2
100
AcDbTrace
 10
-65.74919925683398
 20
66.26970260687071
 30
0.0
 11
-65.74919925683398
 21
67.05961759239509
 31
0.0
 12
-62.74919925683398
 22
66.6646600996329
 32
0.0
 13
-62.74919925683398
 23
66.6646600996329
 33
0.0
  0
MTEXT
  5
20D
330
207
100
AcDbEntity
  8
1
 62
     4
100
AcDbMText
 10
-86.49919925683398
 20
68.6646600996329
 30
0.0
 40
3.0
 41
0.0
 71
     7
 72
     1
  1
43
  7
CONVERTER_12
 11
0.9999999999970619
 21
2.424068405545306E-6
 31
0.0
 73
     1
 44
0.60024009603842
  0
ENDBLK
  5
20F
330
207
100
AcDbEntity
  8
0
100
AcDbBlockEnd
  0
ENDSEC
  0
SECTION
  2
ENTITIES
  0
INSERT
  5
4E
330
1F
100
AcDbEntity
  8
0
100
AcDbBlockReference
  2
A4_oriz
 10
0.0
 20
0.0
 30
0.0
  0
LINE
  5
A3
330
1F
100
AcDbEntity
  8
1
  6
Continuous
 62
     7
100
AcDbLine
 10
-64.04446062042834
 20
81.02511665493525
 30
0.0
 11
-62.74919925683398
 21
81.25350618040592
 31
0.0
  0
LINE
  5
A4
330
1F
100
AcDbEntity
  8
1
  6
DOT_CENTER
 62
     2
100
AcDbLine
 10
-84.24919925683398
 20
157.602349753703
 30
0.0
 11
-84.24919925683398
 21
75.20234975370273
 31
0.0
  0
LINE
  5
A5
330
1F
100
AcDbEntity
  8
0
  6
Continuous
 62
     7
100
AcDbLine
 10
-81.72247119652783
 20
94.53333057224621
 30
0.0
 11
-82.74971326937074
 21
93.0342570367658
 31
0.0
  0
LINE
  5
A6
330
1F
100
AcDbEntity
  8
0
  6
Continuous
 62
     7
100
AcDbLine
 10
-62.74919925683398
 20
93.02511665493525
 30
0.0
 11
-62.83107380791998
 21
93.14792848156402
 31
0.0
  0
LINE
  5
A7
330
1F
100
AcDbEntity
  8
0
  6
Continuous
 62
     7
100
AcDbLine
 10
-81.72247119652783
 20
97.53333057224621
 30
0.0
 11
-69.46761693673588
 21
97.52773001382333
 31
0.0
  0
LINE
  5
A8
330
1F
100
AcDbEntity
  8
0
  6
Continuous
 62
     7
100
AcDbLine
 10
-81.72247119652783
 20
97.53333057224621
 30
0.0
 11
-82.74971326937074
 21
96.0342570367658
 31
0.0
  0
LINE
  5
A9
330
1F
100
AcDbEntity
  8
0
  6
Continuous
 62
     7
100
AcDbLine
 10
-82.74971326937074
 20
93.0342570367658
 30
0.0
 11
-62.74919925683398
 21
93.0342570367658
 31
0.0
  0
LINE
  5
AA
330
1F
100
AcDbEntity
  8
0
  6
Continuous
 62
     7
100
AcDbLine
 10
-68.46761693673588
 20
99.02773001382333
 30
0.0
 11
-82.74971326937074
 21
99.0342570367658
 31
0.0
  0
LINE
  5
AB
330
1F
100
AcDbEntity
  8
0
  6
Continuous
 62
     7
100
AcDbLine
 10
-68.46761693673588
 20
96.02773001382333
 30
0.0
 11
-82.74971326937074
 21
96.0342570367658
 31
0.0
  0
LINE
  5
AC
330
1F
100
AcDbEntity
  8
0
  6
Continuous
 62
     7
100
AcDbLine
 10
-81.72247119652783
 20
94.53333057224621
 30
0.0
 11
-63.64825861850216
 21
94.52904418809057
 31
0.0
  0
LINE
  5
AD
330
1F
100
AcDbEntity
  8
0
  6
Continuous
 62
     7
100
AcDbLine
 10
-82.74971326937074
 20
99.0342570367658
 30
0.0
 11
-81.72247119652783
 21
97.53333057224621
 31
0.0
  0
LINE
  5
AE
330
1F
100
AcDbEntity
  8
0
  6
Continuous
 62
     7
100
AcDbLine
 10
-82.74971326937074
 20
93.0342570367658
 30
0.0
 11
-82.74971326937074
 21
105.0342570367658
 31
0.0
  0
LINE
  5
AF
330
1F
100
AcDbEntity
  8
0
  6
Continuous
 62
     7
100
AcDbLine
 10
-82.74971326937074
 20
96.0342570367658
 30
0.0
 11
-81.72247119652783
 21
94.53333057224621
 31
0.0
  0
LINE
  5
B0
330
1F
100
AcDbEntity
  8
0
  6
Continuous
 62
     7
100
AcDbLine
 10
-62.83061118973282
 20
104.902998755587
 30
0.0
 11
-62.74919925683398
 21
105.0251166549353
 31
0.0
  0
LINE
  5
B1
330
1F
100
AcDbEntity
  8
0
  6
Continuous
 62
     7
100
AcDbLine
 10
-81.72247119652783
 20
100.5333305722462
 30
0.0
 11
-69.46761693673588
 21
100.5277300138233
 31
0.0
  0
LINE
  5
B2
330
1F
100
AcDbEntity
  8
0
  6
Continuous
 62
     7
100
AcDbLine
 10
-68.46761693673588
 20
102.0277300138233
 30
0.0
 11
-82.74971326937074
 21
102.0342570367658
 31
0.0
  0
LINE
  5
B3
330
1F
100
AcDbEntity
  8
0
  6
Continuous
 62
     7
100
AcDbLine
 10
-69.56596061867876
 20
105.0282319649546
 30
0.0
 11
-82.74971326937074
 21
105.0342570367658
 31
0.0
  0
LINE
  5
B4
330
1F
100
AcDbEntity
  8
0
  6
Continuous
 62
     7
100
AcDbLine
 10
-81.72247119652783
 20
103.5333305722462
 30
0.0
 11
-69.46761693673588
 21
103.5277300138233
 31
0.0
  0
LINE
  5
B5
330
1F
100
AcDbEntity
  8
0
  6
Continuous
 62
     7
100
AcDbLine
 10
-81.72247119652783
 20
103.5333305722462
 30
0.0
 11
-82.74971326937074
 21
102.0342570367658
 31
0.0
  0
LINE
  5
B6
330
1F
100
AcDbEntity
  8
0
  6
Continuous
 62
     7
100
AcDbLine
 10
-81.72247119652783
 20
100.5333305722462
 30
0.0
 11
-82.74971326937074
 21
99.0342570367658
 31
0.0
  0
LINE
  5
B7
330
1F
100
AcDbEntity
  8
0
  6
Continuous
 62
     7
100
AcDbLine
 10
-82.74971326937074
 20
105.0342570367658
 30
0.0
 11
-81.72247119652783
 21
103.5333305722462
 31
0.0
  0
LINE
  5
B8
330
1F
100
AcDbEntity
  8
0
  6
Continuous
 62
     2
100
AcDbLine
 10
-62.74919925683398
 20
107.9709888959163
 30
0.0
 11
-69.56596061867876
 21
107.9709888959163
 31
0.0
  0
LINE
  5
B9
330
1F
100
AcDbEntity
  8
0
  6
Continuous
 62
     7
100
AcDbLine
 10
-82.74971326937074
 20
102.0342570367658
 30
0.0
 11
-81.72247119652783
 21
100.5333305722462
 31
0.0
  0
LINE
  5
BA
330
1F
100
AcDbEntity
  8
0
  6
Continuous
 62
     2
100
AcDbLine
 10
-84.24919925683369
 20
107.9892239619011
 30
0.0
 11
-69.56852125238774
 21
107.9881570176672
 31
0.0
  0
LINE
  5
BB
330
1F
100
AcDbEntity
  8
0
  6
Continuous
 62
     7
100
AcDbLine
 10
-84.24919925683398
 20
153.0251166549352
 30
0.0
 11
-65.67066841191044
 21
152.5386207033592
 31
0.0
  0
LINE
  5
BC
330
1F
100
AcDbEntity
  8
0
  6
Continuous
 62
     7
100
AcDbLine
 10
-63.56429919142565
 20
97.80246675304774
 30
0.0
 11
-62.9340993222423
 21
98.74776655682253
 31
0.0
  0
LINE
  5
BD
330
1F
100
AcDbEntity
  8
0
  6
Continuous
 62
     7
100
AcDbLine
 10
-62.9340993222423
 20
95.74776655682253
 30
0.0
 11
-63.56429919142565
 21
94.80246675304774
 31
0.0
  0
LINE
  5
BE
330
1F
100
AcDbEntity
  8
0
  6
Continuous
 62
     7
100
AcDbLine
 10
-62.74919925683398
 20
149.5396487284326
 30
0.0
 11
-62.74919925683398
 21
145.525116654935
 31
0.0
  0
LINE
  5
BF
330
1F
100
AcDbEntity
  8
0
  6
Continuous
 62
     7
100
AcDbLine
 10
-63.24919925683398
 20
144.0251166549352
 30
0.0
 11
-62.74919925683398
 21
145.525116654935
 31
0.0
  0
LINE
  5
C0
330
1F
100
AcDbEntity
  8
0
  6
Continuous
 62
     7
100
AcDbLine
 10
-62.74919925683398
 20
93.02511665493525
 30
0.0
 11
-62.74919925683398
 21
81.25350618040592
 31
0.0
  0
LINE
  5
C1
330
1F
100
AcDbEntity
  8
0
  6
Continuous
 62
     7
100
AcDbLine
 10
-62.74919925683398
 20
93.02511665493525
 30
0.0
 11
-63.56429919142565
 21
94.24776655682253
 31
0.0
  0
LINE
  5
C2
330
1F
100
AcDbEntity
  8
0
  6
Continuous
 62
     7
100
AcDbLine
 10
-62.9340993222423
 20
96.30246675304774
 30
0.0
 11
-63.56429919142565
 21
97.24776655682253
 31
0.0
  0
LINE
  5
C3
330
1F
100
AcDbEntity
  8
0
  6
Continuous
 62
     7
100
AcDbLine
 10
-63.56429919142565
 20
100.2477665568225
 30
0.0
 11
-62.9340993222423
 21
99.30246675304774
 31
0.0
  0
LINE
  5
C4
330
1F
100
AcDbEntity
  8
0
  6
Continuous
 62
     7
100
AcDbLine
 10
-62.9340993222423
 20
102.3024667530477
 30
0.0
 11
-63.56429919142565
 21
103.2477665568225
 31
0.0
  0
LINE
  5
C5
330
1F
100
AcDbEntity
  8
0
  6
Continuous
 62
     7
100
AcDbLine
 10
-62.74919925683398
 20
109.5251166549353
 30
0.0
 11
-62.74919925683398
 21
105.0251166549353
 31
0.0
  0
LINE
  5
C6
330
1F
100
AcDbEntity
  8
0
  6
Continuous
 62
     7
100
AcDbLine
 10
-63.24919925683398
 20
111.0251166549353
 30
0.0
 11
-63.24919925683398
 21
144.0251166549352
 31
0.0
  0
LINE
  5
C7
330
1F
100
AcDbEntity
  8
0
  6
Continuous
 62
     7
100
AcDbLine
 10
-62.74919925683398
 20
109.5251166549353
 30
0.0
 11
-63.24919925683398
 21
111.0251166549353
 31
0.0
  0
LINE
  5
C8
330
1F
100
AcDbEntity
  8
0
  6
Continuous
 62
     7
100
AcDbLine
 10
-63.56429919142565
 20
100.8024667530477
 30
0.0
 11
-62.9340993222423
 21
101.7477665568225
 31
0.0
  0
LINE
  5
C9
330
1F
100
AcDbEntity
  8
0
  6
Continuous
 62
     7
100
AcDbLine
 10
-63.56429919142565
 20
103.8024667530477
 30
0.0
 11
-62.74919925683398
 21
105.0251166549353
 31
0.0
  0
LINE
  5
CA
330
1F
100
AcDbEntity
  8
0
  6
Continuous
 62
     7
100
AcDbLine
 10
-223.1964258554861
 20
150.5469106983284
 30
0.0
 11
-230.6941654134648
 21
108.0251166549348
 31
0.0
  0
LINE
  5
CB
330
1F
100
AcDbEntity
  8
0
  6
Continuous
 62
     7
100
AcDbLine
 10
-223.5591603521448
 20
103.5251166549348
 30
0.0
 11
-178.7717439809087
 21
103.5251166549348
 31
0.0
  0
LINE
  5
CC
330
1F
100
AcDbEntity
  8
0
  6
Continuous
 62
     7
100
AcDbLine
 10
-179.8398525756549
 20
144.0251166549348
 30
0.0
 11
-222.4910517573986
 21
144.0251166549348
 31
0.0
  0
LINE
  5
CD
330
1F
100
AcDbEntity
  8
0
  6
Continuous
 62
     7
100
AcDbLine
 10
-223.3633106979064
 20
105.0251166549348
 30
0.0
 11
-178.9675936351471
 21
105.0251166549348
 31
0.0
  0
LINE
  5
CE
330
1F
100
AcDbEntity
  8
0
  6
Continuous
 62
     7
100
AcDbLine
 10
-178.8986245686254
 20
109.5251166549348
 30
0.0
 11
-223.4322797644282
 21
109.5251166549348
 31
0.0
  0
LINE
  5
CF
330
1F
100
AcDbEntity
  8
0
  6
Continuous
 62
     7
100
AcDbLine
 10
-220.5426667494525
 20
145.5251166549348
 30
0.0
 11
-181.7882375836009
 21
145.5251166549348
 31
0.0
  0
LINE
  5
D0
330
1F
100
AcDbEntity
  8
0
  6
Continuous
 62
     7
100
AcDbLine
 10
-220.2430150035119
 20
153.0251166549348
 30
0.0
 11
-182.0887519450014
 21
153.0251166549348
 31
0.0
  0
LINE
  5
D1
330
1F
100
AcDbEntity
  8
0
  6
Continuous
 62
     2
100
AcDbLine
 10
-225.1764622677686
 20
129.0251166549348
 30
0.0
 11
-225.1359564680256
 21
129.0251166549348
 31
0.0
  0
LINE
  5
D2
330
1F
100
AcDbEntity
  8
0
  6
Continuous
 62
     7
100
AcDbLine
 10
-176.445421201469
 20
111.0251166549348
 30
0.0
 11
-225.8854831315944
 21
111.0251166549357
 31
0.0
  0
LINE
  5
D3
330
1F
100
AcDbEntity
  8
0
  6
Continuous
 62
     7
100
AcDbLine
 10
-229.7582650716613
 20
100.5333305722462
 30
0.0
 11
-229.4374092945054
 21
100.5277300138229
 31
0.0
  0
LINE
  5
D4
330
1F
100
AcDbEntity
  8
0
  6
Continuous
 62
     7
100
AcDbLine
 10
-229.7058998768765
 20
103.5333305722462
 30
0.0
 11
-229.3850440997208
 21
103.5277300138233
 31
0.0
  0
LINE
  5
D5
330
1F
100
AcDbEntity
  8
0
  6
Continuous
 62
     7
100
AcDbLine
 10
-223.663890741714
 20
97.52511665493525
 30
0.0
 11
-178.6670135913394
 21
97.52511665493525
 31
0.0
  0
LINE
  5
D6
330
1F
100
AcDbEntity
  8
0
  6
Continuous
 62
     7
100
AcDbLine
 10
-223.6115255469294
 20
100.5251166549348
 30
0.0
 11
-178.719378786124
 21
100.5251166549348
 31
0.0
  0
LINE
  5
D7
330
1F
100
AcDbEntity
  8
0
  6
Continuous
 62
     7
100
AcDbLine
 10
-177.6665257316148
 20
96.02511665493525
 30
0.0
 11
-224.6643786014386
 21
96.02511665493525
 31
0.0
  0
LINE
  5
D8
330
1F
100
AcDbEntity
  8
0
  6
Continuous
 62
     7
100
AcDbLine
 10
-223.7162559364986
 20
94.52511665493525
 30
0.0
 11
-178.6146483965547
 21
94.52511665493525
 31
0.0
  0
LINE
  5
D9
330
1F
100
AcDbEntity
  8
0
  6
Continuous
 62
     7
100
AcDbLine
 10
-164.6654521665268
 20
89.92511665493488
 30
0.0
 11
-164.6654521665268
 21
85.12511665493516
 31
0.0
  0
LINE
  5
DA
330
1F
100
AcDbEntity
  8
0
  6
Continuous
 62
     7
100
AcDbLine
 10
-164.6654521665268
 20
85.12511665493516
 30
0.0
 11
-169.7365093370738
 21
85.12511665497335
 31
0.0
  0
LINE
  5
DB
330
1F
100
AcDbEntity
  8
0
  6
Continuous
 62
     7
100
AcDbLine
 10
-164.6654521665268
 20
89.92511665493488
 30
0.0
 11
-169.8202823015481
 21
89.92511669304135
 31
0.0
  0
LINE
  5
DC
330
1F
100
AcDbEntity
  8
0
  6
Continuous
 62
     7
100
AcDbLine
 10
-222.4910517573986
 20
144.0251166549348
 30
0.0
 11
-225.1359564680256
 21
129.0251166549348
 31
0.0
  0
LINE
  5
DD
330
1F
100
AcDbEntity
  8
0
  6
Continuous
 62
     7
100
AcDbLine
 10
-179.1343286859647
 20
150.5460611879358
 30
0.0
 11
-171.6367389195886
 21
108.0251166549348
 31
0.0
  0
LINE
  5
DE
330
1F
100
AcDbEntity
  8
0
  6
Continuous
 62
     7
100
AcDbLine
 10
-179.8398525756549
 20
144.0251166549348
 30
0.0
 11
-177.1949478650279
 21
129.0251166549348
 31
0.0
  0
LINE
  5
DF
330
1F
100
AcDbEntity
  8
0
  6
Continuous
 62
     7
100
AcDbLine
 10
-171.6367389195886
 20
108.0251166549348
 30
0.0
 11
-171.346980828343
 21
91.42488672527465
 31
0.0
  0
LINE
  5
E0
330
1F
100
AcDbEntity
  8
0
  6
Continuous
 62
     7
100
AcDbLine
 10
-172.467908871823
 20
94.53333057224621
 30
0.0
 11
-171.4143438953104
 21
93.0342570367658
 31
0.0
  0
LINE
  5
E1
330
1F
100
AcDbEntity
  8
0
  6
Continuous
 62
     7
100
AcDbLine
 10
-172.5726392613922
 20
100.5333305722462
 30
0.0
 11
-171.5190742848797
 21
99.0342570367658
 31
0.0
  0
LINE
  5
E2
330
1F
100
AcDbEntity
  8
0
  6
Continuous
 62
     7
100
AcDbLine
 10
-172.467908871823
 20
94.53333057224621
 30
0.0
 11
-172.7887646489787
 21
94.52773001382333
 31
0.0
  0
LINE
  5
E3
330
1F
100
AcDbEntity
  8
0
  6
Continuous
 62
     7
100
AcDbLine
 10
-172.5202740666075
 20
97.53333057224621
 30
0.0
 11
-172.8411298437634
 21
97.52773001382333
 31
0.0
  0
LINE
  5
E4
330
1F
100
AcDbEntity
  8
0
  6
Continuous
 62
     7
100
AcDbLine
 10
-172.5726392613922
 20
100.5333305722462
 30
0.0
 11
-172.8934950385481
 21
100.5277300138233
 31
0.0
  0
LINE
  5
E5
330
1F
100
AcDbEntity
  8
0
  6
Continuous
 62
     7
100
AcDbLine
 10
-171.4143438953104
 20
93.0342570367658
 30
0.0
 11
-171.7595200282039
 21
93.02823196495423
 31
0.0
  0
LINE
  5
E6
330
1F
100
AcDbEntity
  8
0
  6
Continuous
 62
     7
100
AcDbLine
 10
-171.5190742848797
 20
99.0342570367658
 30
0.0
 11
-172.5202740666075
 21
97.53333057224621
 31
0.0
  0
LINE
  5
E7
330
1F
100
AcDbEntity
  8
0
  6
Continuous
 62
     7
100
AcDbLine
 10
-171.8930071788234
 20
99.02773001382333
 30
0.0
 11
-171.5190742848797
 21
99.0342570367658
 31
0.0
  0
LINE
  5
E8
330
1F
100
AcDbEntity
  8
0
  6
Continuous
 62
     7
100
AcDbLine
 10
-172.5202740666075
 20
97.53333057224621
 30
0.0
 11
-171.4667090900951
 21
96.0342570367658
 31
0.0
  0
LINE
  5
E9
330
1F
100
AcDbEntity
  8
0
  6
Continuous
 62
     7
100
AcDbLine
 10
-171.8406419840387
 20
96.02773001382333
 30
0.0
 11
-171.4667090900951
 21
96.0342570367658
 31
0.0
  0
LINE
  5
EA
330
1F
100
AcDbEntity
  8
0
  6
Continuous
 62
     7
100
AcDbLine
 10
-171.4667090900951
 20
96.0342570367658
 30
0.0
 11
-172.467908871823
 21
94.53333057224621
 31
0.0
  0
LINE
  5
EB
330
1F
100
AcDbEntity
  8
0
  6
Continuous
 62
     7
100
AcDbLine
 10
-171.9689808073425
 20
105.0282319649556
 30
0.0
 11
-171.6238046744491
 21
105.0342570367658
 31
0.0
  0
LINE
  5
EC
330
1F
100
AcDbEntity
  8
0
  6
Continuous
 62
     7
100
AcDbLine
 10
-171.6238046744491
 20
105.0342570367658
 30
0.0
 11
-172.6250044561769
 21
103.5333305722462
 31
0.0
  0
LINE
  5
ED
330
1F
100
AcDbEntity
  8
0
  6
Continuous
 62
     7
100
AcDbLine
 10
-172.6250044561769
 20
103.5333305722462
 30
0.0
 11
-172.9458602333326
 21
103.5277300138233
 31
0.0
  0
LINE
  5
EE
330
1F
100
AcDbEntity
  8
0
  6
Continuous
 62
     7
100
AcDbLine
 10
-172.6250044561769
 20
103.5333305722462
 30
0.0
 11
-171.5714394796644
 21
102.0342570367658
 31
0.0
  0
LINE
  5
EF
330
1F
100
AcDbEntity
  8
0
  6
Continuous
 62
     7
100
AcDbLine
 10
-171.5714394796644
 20
102.0342570367658
 30
0.0
 11
-172.5726392613922
 21
100.5333305722462
 31
0.0
  0
LINE
  5
F0
330
1F
100
AcDbEntity
  8
0
  6
Continuous
 62
     7
100
AcDbLine
 10
-171.9453723736081
 20
102.0277300138233
 30
0.0
 11
-171.5714394796644
 21
102.0342570367658
 31
0.0
  0
LINE
  5
F1
330
1F
100
AcDbEntity
  8
0
  6
Continuous
 62
     2
100
AcDbLine
 10
-177.1544420652849
 20
129.0251166549348
 30
0.0
 11
-177.1949478650279
 21
129.0251166549348
 31
0.0
  0
LINE
  5
F2
330
1F
100
AcDbEntity
  8
0
  6
Continuous
 62
     7
100
AcDbLine
 10
-229.8701908029326
 20
81.02511665493525
 30
0.0
 11
-172.4607135301208
 21
81.02511665493525
 31
0.0
  0
LINE
  5
F3
330
1F
100
AcDbEntity
  8
0
  6
Continuous
 62
     7
100
AcDbLine
 10
-171.2108391608854
 20
83.62533582027994
 30
0.0
 11
-171.1694264883594
 21
81.252805400237
 31
0.0
  0
LINE
  5
F4
330
1F
100
AcDbEntity
  8
0
  6
Continuous
 62
     7
100
AcDbLine
 10
-177.7712561211842
 20
102.0251166549348
 30
0.0
 11
-224.5596482118694
 21
102.0251166549348
 31
0.0
  0
LINE
  5
F5
330
1F
100
AcDbEntity
  8
0
  6
Continuous
 62
     7
100
AcDbLine
 10
-224.6120134066539
 20
99.02511665493525
 30
0.0
 11
-177.7188909263995
 21
99.02511665493525
 31
0.0
  0
LINE
  5
F6
330
1F
100
AcDbEntity
  8
0
  6
Continuous
 62
     7
100
AcDbLine
 10
-223.5727714770451
 20
93.02511665493525
 30
0.0
 11
-178.7581328560084
 21
93.02511665493525
 31
0.0
  0
LINE
  5
F7
330
1F
100
AcDbEntity
  8
0
  6
Continuous
 62
     7
100
AcDbLine
 10
-237.6654521665268
 20
89.92511665493488
 30
0.0
 11
-232.5106220315053
 21
89.92511669304135
 31
0.0
  0
LINE
  5
F8
330
1F
100
AcDbEntity
  8
0
  6
Continuous
 62
     7
100
AcDbLine
 10
-230.9839235047105
 20
91.42488672527465
 30
0.0
 11
-230.6941654134648
 21
108.0251166549348
 31
0.0
  0
LINE
  5
F9
330
1F
100
AcDbEntity
  8
0
  6
Continuous
 62
     7
100
AcDbLine
 10
-229.7058998768765
 20
103.5333305722462
 30
0.0
 11
-230.7594648533891
 21
102.0342570367658
 31
0.0
  0
LINE
  5
FA
330
1F
100
AcDbEntity
  8
0
  6
Continuous
 62
     7
100
AcDbLine
 10
-230.7070996586043
 20
105.0342570367658
 30
0.0
 11
-229.7058998768765
 21
103.5333305722462
 31
0.0
  0
LINE
  5
FB
330
1F
100
AcDbEntity
  8
0
  6
Continuous
 62
     7
100
AcDbLine
 10
-229.7582650716613
 20
100.5333305722462
 30
0.0
 11
-230.8118300481737
 21
99.0342570367658
 31
0.0
  0
LINE
  5
FC
330
1F
100
AcDbEntity
  8
0
  6
Continuous
 62
     7
100
AcDbLine
 10
-230.8641952429583
 20
96.0342570367658
 30
0.0
 11
-229.8629954612305
 21
94.53333057224621
 31
0.0
  0
LINE
  5
FD
330
1F
100
AcDbEntity
  8
0
  6
Continuous
 62
     7
100
AcDbLine
 10
-230.7594648533891
 20
102.0342570367658
 30
0.0
 11
-229.7582650716613
 21
100.5333305722462
 31
0.0
  0
LINE
  5
FE
330
1F
100
AcDbEntity
  8
0
  6
Continuous
 62
     7
100
AcDbLine
 10
-230.8118300481737
 20
99.0342570367658
 30
0.0
 11
-229.8106302664458
 21
97.53333057224621
 31
0.0
  0
LINE
  5
FF
330
1F
100
AcDbEntity
  8
0
  6
Continuous
 62
     7
100
AcDbLine
 10
-229.8106302664458
 20
97.53333057224621
 30
0.0
 11
-230.8641952429583
 21
96.0342570367658
 31
0.0
  0
LINE
  5
100
330
1F
100
AcDbEntity
  8
0
  6
Continuous
 62
     7
100
AcDbLine
 10
-229.8106302664458
 20
97.53333057224621
 30
0.0
 11
-229.4897744892901
 21
97.52773001382288
 31
0.0
  0
LINE
  5
101
330
1F
100
AcDbEntity
  8
0
  6
Continuous
 62
     7
100
AcDbLine
 10
-230.3855319594453
 20
102.0277300138233
 30
0.0
 11
-230.7594648533891
 21
102.0342570367658
 31
0.0
  0
LINE
  5
102
330
1F
100
AcDbEntity
  8
0
  6
Continuous
 62
     7
100
AcDbLine
 10
-230.4378971542299
 20
99.02773001382333
 30
0.0
 11
-230.8118300481737
 21
99.0342570367658
 31
0.0
  0
LINE
  5
103
330
1F
100
AcDbEntity
  8
0
  6
Continuous
 62
     7
100
AcDbLine
 10
-230.4902623490147
 20
96.02773001382333
 30
0.0
 11
-230.8641952429583
 21
96.0342570367658
 31
0.0
  0
LINE
  5
104
330
1F
100
AcDbEntity
  8
0
  6
Continuous
 62
     7
100
AcDbLine
 10
-229.8629954612305
 20
94.53333057224621
 30
0.0
 11
-229.5421396840748
 21
94.52773001382288
 31
0.0
  0
LINE
  5
105
330
1F
100
AcDbEntity
  8
0
  6
Continuous
 62
     7
100
AcDbLine
 10
-229.8629954612305
 20
94.53333057224621
 30
0.0
 11
-230.9165604377431
 21
93.0342570367658
 31
0.0
  0
LINE
  5
106
330
1F
100
AcDbEntity
  8
0
  6
Continuous
 62
     7
100
AcDbLine
 10
-230.361923525711
 20
105.0282319649542
 30
0.0
 11
-230.7070996586043
 21
105.0342570367658
 31
0.0
  0
LINE
  5
107
330
1F
100
AcDbEntity
  8
0
  6
Continuous
 62
     7
100
AcDbLine
 10
-230.9165604377431
 20
93.0342570367658
 30
0.0
 11
-230.5713843048495
 21
93.02823196495514
 31
0.0
  0
LINE
  5
108
330
1F
100
AcDbEntity
  8
0
  6
Continuous
 62
     7
100
AcDbLine
 10
-237.6654521665268
 20
89.92511665493488
 30
0.0
 11
-237.6654521665268
 21
85.12511665493516
 31
0.0
  0
LINE
  5
109
330
1F
100
AcDbEntity
  8
0
  6
Continuous
 62
     7
100
AcDbLine
 10
-237.6654521665268
 20
85.12511665493516
 30
0.0
 11
-232.5943949959796
 21
85.12511665493516
 31
0.0
  0
LINE
  5
10A
330
1F
100
AcDbEntity
  8
1
  6
DOT_CENTER
 62
     2
100
AcDbLine
 10
-201.1654521665268
 20
157.4827427492338
 30
0.0
 11
-201.1654521665268
 21
141.226620059455
 31
0.0
  0
LINE
  5
10B
330
1F
100
AcDbEntity
  8
1
  6
Continuous
 62
     7
100
AcDbLine
 10
-171.1694264883594
 20
81.252805400237
 30
0.0
 11
-172.4607135301208
 21
81.02511665493525
 31
0.0
  0
LINE
  5
10C
330
1F
100
AcDbEntity
  8
1
  6
Continuous
 62
     7
100
AcDbLine
 10
-229.8701908029326
 20
81.02511665493525
 30
0.0
 11
-231.161477844694
 21
81.252805400237
 31
0.0
  0
LINE
  5
10D
330
1F
100
AcDbEntity
  8
0
  6
Continuous
 62
     7
100
AcDbLine
 10
-231.161477844694
 20
81.252805400237
 30
0.0
 11
-231.1200651721681
 21
83.62533582027994
 31
0.0
  0
LINE
  5
10E
330
1F
100
AcDbEntity
  8
1
  6
DOT_CENTER
 62
     2
100
AcDbLine
 10
-162.5495832908832
 20
87.52511665493479
 30
0.0
 11
-174.3495832908832
 21
87.52511665493479
 31
0.0
  0
LINE
  5
10F
330
1F
100
AcDbEntity
  8
1
  6
DOT_CENTER
 62
     2
100
AcDbLine
 10
-227.9813210421703
 20
87.52511665493479
 30
0.0
 11
-239.7813210421703
 21
87.52511665493479
 31
0.0
  0
LINE
  5
110
330
1F
100
AcDbEntity
  8
1
  6
DOT_CENTER
 62
     2
100
AcDbLine
 10
-152.7703237735282
 20
134.0295693643047
 30
0.0
 11
-181.5600283445315
 21
128.9531676818098
 31
0.0
  0
LINE
  5
111
330
1F
100
AcDbEntity
  8
0
  6
Continuous
 62
     7
100
AcDbLine
 10
-104.4539378932396
 20
81.02511665493525
 30
0.0
 11
-64.04446062042834
 21
81.02511665493525
 31
0.0
  0
LINE
  5
112
330
1F
100
AcDbEntity
  8
0
  6
Continuous
 62
     7
100
AcDbLine
 10
-105.749199256834
 20
105.0251166549353
 30
0.0
 11
-104.9340993222423
 21
103.8024667530477
 31
0.0
  0
LINE
  5
113
330
1F
100
AcDbEntity
  8
0
  6
Continuous
 62
     7
100
AcDbLine
 10
-105.5642991914257
 20
101.7477665568225
 30
0.0
 11
-104.9340993222423
 21
100.8024667530477
 31
0.0
  0
LINE
  5
114
330
1F
100
AcDbEntity
  8
0
  6
Continuous
 62
     7
100
AcDbLine
 10
-105.249199256834
 20
111.0251166549353
 30
0.0
 11
-105.749199256834
 21
109.5251166549353
 31
0.0
  0
LINE
  5
115
330
1F
100
AcDbEntity
  8
0
  6
Continuous
 62
     7
100
AcDbLine
 10
-105.249199256834
 20
144.0251166549352
 30
0.0
 11
-105.249199256834
 21
111.0251166549353
 31
0.0
  0
LINE
  5
116
330
1F
100
AcDbEntity
  8
0
  6
Continuous
 62
     7
100
AcDbLine
 10
-105.749199256834
 20
105.0251166549353
 30
0.0
 11
-105.749199256834
 21
109.5251166549353
 31
0.0
  0
LINE
  5
117
330
1F
100
AcDbEntity
  8
0
  6
Continuous
 62
     7
100
AcDbLine
 10
-104.9340993222423
 20
103.2477665568225
 30
0.0
 11
-105.5642991914257
 21
102.3024667530477
 31
0.0
  0
LINE
  5
118
330
1F
100
AcDbEntity
  8
0
  6
Continuous
 62
     7
100
AcDbLine
 10
-105.5642991914257
 20
99.30246675304774
 30
0.0
 11
-104.9340993222423
 21
100.2477665568225
 31
0.0
  0
LINE
  5
119
330
1F
100
AcDbEntity
  8
0
  6
Continuous
 62
     7
100
AcDbLine
 10
-104.9340993222423
 20
97.24776655682253
 30
0.0
 11
-105.5642991914257
 21
96.30246675304774
 31
0.0
  0
LINE
  5
11A
330
1F
100
AcDbEntity
  8
0
  6
Continuous
 62
     7
100
AcDbLine
 10
-104.9340993222423
 20
94.24776655682253
 30
0.0
 11
-105.749199256834
 21
93.02511665493525
 31
0.0
  0
LINE
  5
11B
330
1F
100
AcDbEntity
  8
0
  6
Continuous
 62
     7
100
AcDbLine
 10
-105.749199256834
 20
81.25350618040592
 30
0.0
 11
-105.749199256834
 21
93.02511665493525
 31
0.0
  0
LINE
  5
11C
330
1F
100
AcDbEntity
  8
0
  6
Continuous
 62
     7
100
AcDbLine
 10
-105.749199256834
 20
145.525116654935
 30
0.0
 11
-105.249199256834
 21
144.0251166549352
 31
0.0
  0
LINE
  5
11D
330
1F
100
AcDbEntity
  8
0
  6
Continuous
 62
     7
100
AcDbLine
 10
-105.749199256834
 20
145.525116654935
 30
0.0
 11
-105.749199256834
 21
149.5396487284326
 31
0.0
  0
LINE
  5
11E
330
1F
100
AcDbEntity
  8
0
  6
Continuous
 62
     7
100
AcDbLine
 10
-104.9340993222423
 20
94.80246675304774
 30
0.0
 11
-105.5642991914257
 21
95.74776655682253
 31
0.0
  0
LINE
  5
11F
330
1F
100
AcDbEntity
  8
0
  6
Continuous
 62
     7
100
AcDbLine
 10
-105.5642991914257
 20
98.74776655682253
 30
0.0
 11
-104.9340993222423
 21
97.80246675304774
 31
0.0
  0
LINE
  5
120
330
1F
100
AcDbEntity
  8
0
  6
Continuous
 62
     7
100
AcDbLine
 10
-102.8277301017575
 20
152.5386207033592
 30
0.0
 11
-84.24919925683398
 21
153.0251166549352
 31
0.0
  0
LINE
  5
121
330
1F
100
AcDbEntity
  8
0
  6
Continuous
 62
     2
100
AcDbLine
 10
-98.92987726128021
 20
107.9881570176672
 30
0.0
 11
-84.24919925683369
 21
107.9892239619011
 31
0.0
  0
LINE
  5
122
330
1F
100
AcDbEntity
  8
0
  6
Continuous
 62
     7
100
AcDbLine
 10
-86.77592731714012
 20
100.5333305722462
 30
0.0
 11
-85.7486852442972
 21
102.0342570367658
 31
0.0
  0
LINE
  5
123
330
1F
100
AcDbEntity
  8
0
  6
Continuous
 62
     2
100
AcDbLine
 10
-98.93243789498919
 20
107.9709888959163
 30
0.0
 11
-105.749199256834
 21
107.9709888959163
 31
0.0
  0
LINE
  5
124
330
1F
100
AcDbEntity
  8
0
  6
Continuous
 62
     7
100
AcDbLine
 10
-86.77592731714012
 20
103.5333305722462
 30
0.0
 11
-85.7486852442972
 21
105.0342570367658
 31
0.0
  0
LINE
  5
125
330
1F
100
AcDbEntity
  8
0
  6
Continuous
 62
     7
100
AcDbLine
 10
-85.7486852442972
 20
99.0342570367658
 30
0.0
 11
-86.77592731714012
 21
100.5333305722462
 31
0.0
  0
LINE
  5
126
330
1F
100
AcDbEntity
  8
0
  6
Continuous
 62
     7
100
AcDbLine
 10
-85.7486852442972
 20
102.0342570367658
 30
0.0
 11
-86.77592731714012
 21
103.5333305722462
 31
0.0
  0
LINE
  5
127
330
1F
100
AcDbEntity
  8
0
  6
Continuous
 62
     7
100
AcDbLine
 10
-99.03078157693207
 20
103.5277300138233
 30
0.0
 11
-86.77592731714012
 21
103.5333305722462
 31
0.0
  0
LINE
  5
128
330
1F
100
AcDbEntity
  8
0
  6
Continuous
 62
     7
100
AcDbLine
 10
-85.7486852442972
 20
105.0342570367658
 30
0.0
 11
-98.93243789498919
 21
105.0282319649546
 31
0.0
  0
LINE
  5
129
330
1F
100
AcDbEntity
  8
0
  6
Continuous
 62
     7
100
AcDbLine
 10
-85.7486852442972
 20
102.0342570367658
 30
0.0
 11
-100.0307815769321
 21
102.0277300138233
 31
0.0
  0
LINE
  5
12A
330
1F
100
AcDbEntity
  8
0
  6
Continuous
 62
     7
100
AcDbLine
 10
-99.03078157693207
 20
100.5277300138233
 30
0.0
 11
-86.77592731714012
 21
100.5333305722462
 31
0.0
  0
LINE
  5
12B
330
1F
100
AcDbEntity
  8
0
  6
Continuous
 62
     7
100
AcDbLine
 10
-105.749199256834
 20
105.0251166549353
 30
0.0
 11
-105.6677873239351
 21
104.902998755587
 31
0.0
  0
LINE
  5
12C
330
1F
100
AcDbEntity
  8
0
  6
Continuous
 62
     7
100
AcDbLine
 10
-86.77592731714012
 20
94.53333057224621
 30
0.0
 11
-85.7486852442972
 21
96.0342570367658
 31
0.0
  0
LINE
  5
12D
330
1F
100
AcDbEntity
  8
0
  6
Continuous
 62
     7
100
AcDbLine
 10
-85.7486852442972
 20
105.0342570367658
 30
0.0
 11
-85.7486852442972
 21
93.0342570367658
 31
0.0
  0
LINE
  5
12E
330
1F
100
AcDbEntity
  8
0
  6
Continuous
 62
     7
100
AcDbLine
 10
-86.77592731714012
 20
97.53333057224621
 30
0.0
 11
-85.7486852442972
 21
99.0342570367658
 31
0.0
  0
LINE
  5
12F
330
1F
100
AcDbEntity
  8
0
  6
Continuous
 62
     7
100
AcDbLine
 10
-104.8501398951658
 20
94.52904418809057
 30
0.0
 11
-86.77592731714012
 21
94.53333057224621
 31
0.0
  0
LINE
  5
130
330
1F
100
AcDbEntity
  8
0
  6
Continuous
 62
     7
100
AcDbLine
 10
-85.7486852442972
 20
96.0342570367658
 30
0.0
 11
-100.0307815769321
 21
96.02773001382333
 31
0.0
  0
LINE
  5
131
330
1F
100
AcDbEntity
  8
0
  6
Continuous
 62
     7
100
AcDbLine
 10
-85.7486852442972
 20
99.0342570367658
 30
0.0
 11
-100.0307815769321
 21
99.02773001382333
 31
0.0
  0
LINE
  5
132
330
1F
100
AcDbEntity
  8
0
  6
Continuous
 62
     7
100
AcDbLine
 10
-105.749199256834
 20
93.0342570367658
 30
0.0
 11
-85.7486852442972
 21
93.0342570367658
 31
0.0
  0
LINE
  5
133
330
1F
100
AcDbEntity
  8
0
  6
Continuous
 62
     7
100
AcDbLine
 10
-85.7486852442972
 20
96.0342570367658
 30
0.0
 11
-86.77592731714012
 21
97.53333057224621
 31
0.0
  0
LINE
  5
134
330
1F
100
AcDbEntity
  8
0
  6
Continuous
 62
     7
100
AcDbLine
 10
-99.03078157693207
 20
97.52773001382333
 30
0.0
 11
-86.77592731714012
 21
97.53333057224621
 31
0.0
  0
LINE
  5
135
330
1F
100
AcDbEntity
  8
0
  6
Continuous
 62
     7
100
AcDbLine
 10
-105.667324705748
 20
93.14792848156402
 30
0.0
 11
-105.749199256834
 21
93.02511665493525
 31
0.0
  0
LINE
  5
136
330
1F
100
AcDbEntity
  8
0
  6
Continuous
 62
     7
100
AcDbLine
 10
-85.7486852442972
 20
93.0342570367658
 30
0.0
 11
-86.77592731714012
 21
94.53333057224621
 31
0.0
  0
LINE
  5
137
330
1F
100
AcDbEntity
  8
1
  6
Continuous
 62
     7
100
AcDbLine
 10
-105.749199256834
 20
81.25350618040592
 30
0.0
 11
-104.4539378932396
 21
81.02511665493525
 31
0.0
  0
LINE
  5
138
330
1F
100
AcDbEntity
  8
1
  6
DOT_CENTER
 62
     2
100
AcDbLine
 10
-78.44941842217912
 20
87.52511665493479
 30
0.0
 11
-90.04898009148883
 21
87.52511665493479
 31
0.0
  0
LINE
  5
139
330
1F
100
AcDbEntity
  8
1
  6
Continuous
 62
     7
100
AcDbLine
 10
-158.717259219811
 20
118.2572783202493
 30
0.0
 11
-172.996971638488
 21
115.7393797440788
 31
0.0
  0
LINE
  5
13A
330
1F
100
AcDbEntity
  8
1
  6
Continuous
 62
     7
100
AcDbLine
 10
-163.753056372152
 20
146.8167031576033
 30
0.0
 11
-158.717259219811
 21
118.2572783202493
 31
0.0
  0
LINE
  5
13B
330
1F
100
AcDbEntity
  8
1
  6
Continuous
 62
     7
100
AcDbLine
 10
-178.032768790829
 20
144.2988045814328
 30
0.0
 11
-163.753056372152
 21
146.8167031576033
 31
0.0
  0
LINE
  5
13C
330
1F
100
AcDbEntity
  8
1
  6
Continuous
 62
     2
100
AcDbLine
 10
-165.1692687384204
 20
144.5361334832463
 30
0.0
 11
-161.4051427484754
 21
145.1998504540597
 31
0.0
  0
LINE
  5
13D
330
1F
100
AcDbEntity
  8
1
  6
Continuous
 62
     2
100
AcDbLine
 10
-157.0639383068012
 20
120.5796566287547
 30
0.0
 11
-160.8280642967462
 21
119.9159396579413
 31
0.0
  0
LINE
  5
13E
102
{ACAD_REACTORS
330
215
102
}
330
1F
100
AcDbEntity
  8
1
  6
Continuous
 62
     4
100
AcDbLine
 10
-198.8333654509705
 20
133.3433571467173
 30
0.0
 11
-198.8333654509705
 21
137.7068761631527
 31
0.0
  0
LINE
  5
13F
102
{ACAD_REACTORS
330
215
102
}
330
1F
100
AcDbEntity
  8
1
  6
Continuous
 62
     4
100
AcDbLine
 10
-197.0007652015727
 20
133.8165464615209
 30
0.0
 11
-198.333632643449
 21
133.0547295051512
 31
0.0
  0
LINE
  5
140
102
{ACAD_REACTORS
330
215
102
}
330
1F
100
AcDbEntity
  8
1
  6
Continuous
 62
     4
100
AcDbLine
 10
-198.1669317300373
 20
133.9176374676146
 30
0.0
 11
-197.3337970956862
 21
134.3938017446532
 31
0.0
  0
LINE
  5
141
102
{ACAD_REACTORS
330
215
102
}
330
1F
100
AcDbEntity
  8
1
  6
Continuous
 62
     4
100
AcDbLine
 10
-198.1669317300373
 20
135.191899794467
 30
0.0
 11
-198.1669317300373
 21
133.9176374676146
 31
0.0
  0
LINE
  5
142
102
{ACAD_REACTORS
330
215
102
}
330
1F
100
AcDbEntity
  8
1
  6
Continuous
 62
     4
100
AcDbLine
 10
-197.1672811486304
 20
135.191899794467
 30
0.0
 11
-198.1669317300373
 21
135.191899794467
 31
0.0
  0
LINE
  5
143
102
{ACAD_REACTORS
330
215
102
}
330
1F
100
AcDbEntity
  8
1
  6
Continuous
 62
     4
100
AcDbLine
 10
-198.1669317300373
 20
135.8583335154036
 30
0.0
 11
-197.1672811486304
 21
135.8583335154036
 31
0.0
  0
LINE
  5
144
102
{ACAD_REACTORS
330
215
102
}
330
1F
100
AcDbEntity
  8
1
  6
Continuous
 62
     4
100
AcDbLine
 10
-198.1669317300373
 20
137.1325989119221
 30
0.0
 11
-198.1669317300373
 21
135.8583335154036
 31
0.0
  0
LINE
  5
145
102
{ACAD_REACTORS
330
215
102
}
330
1F
100
AcDbEntity
  8
1
  6
Continuous
 62
     4
100
AcDbLine
 10
-197.3337970956862
 20
136.6563752589706
 30
0.0
 11
-198.1669317300373
 21
137.1325989119221
 31
0.0
  0
LINE
  5
146
102
{ACAD_REACTORS
330
215
102
}
330
1F
100
AcDbEntity
  8
1
  6
Continuous
 62
     4
100
AcDbLine
 10
-198.333632643449
 20
137.9955038047194
 30
0.0
 11
-197.0007652015727
 21
137.2336305421019
 31
0.0
  0
LINE
  5
147
102
{ACAD_REACTORS
330
214
102
}
330
1F
100
AcDbEntity
  8
1
  6
Continuous
 62
     4
100
AcDbLine
 10
-205.4977026603372
 20
134.1051741030872
 30
0.0
 11
-205.4977026603372
 21
136.945059206783
 31
0.0
  0
LINE
  5
148
102
{ACAD_REACTORS
330
214
102
}
330
1F
100
AcDbEntity
  8
1
  6
Continuous
 62
     4
100
AcDbLine
 10
-204.8312689394023
 20
134.297628140762
 30
0.0
 11
-204.8312689394023
 21
134.1051741030872
 31
0.0
  0
LINE
  5
149
102
{ACAD_REACTORS
330
214
102
}
330
1F
100
AcDbEntity
  8
1
  6
Continuous
 62
     4
100
AcDbLine
 10
-204.8312689394023
 20
136.945059206783
 30
0.0
 11
-204.8312689394023
 21
134.297628140762
 31
0.0
  0
LINE
  5
14A
102
{ACAD_REACTORS
330
213
102
}
330
1F
100
AcDbEntity
  8
1
  6
Continuous
 62
     4
100
AcDbLine
 10
-201.6656162817788
 20
131.7214386828002
 30
0.0
 11
-203.8314333916467
 21
132.9594022304248
 31
0.0
  0
LINE
  5
14B
102
{ACAD_REACTORS
330
213
102
}
330
1F
100
AcDbEntity
  8
1
  6
Continuous
 62
     4
100
AcDbLine
 10
-203.4984014975306
 20
133.5366575135569
 30
0.0
 11
-201.3325843876635
 21
132.2986939659319
 31
0.0
  0
LINE
  5
14C
102
{ACAD_REACTORS
330
213
102
}
330
1F
100
AcDbEntity
  8
1
  6
Continuous
 62
     4
100
AcDbLine
 10
-203.4984014975306
 20
137.7140211924805
 30
0.0
 11
-203.4984014975306
 21
133.5366575135569
 31
0.0
  0
LINE
  5
14D
102
{ACAD_REACTORS
330
213
102
}
330
1F
100
AcDbEntity
  8
1
  6
Continuous
 62
     4
100
AcDbLine
 10
-204.1648352184655
 20
133.5366575135569
 30
0.0
 11
-204.1648352184655
 21
137.7140211924805
 31
0.0
  0
LINE
  5
14E
102
{ACAD_REACTORS
330
212
102
}
330
1F
100
AcDbEntity
  8
1
  6
Continuous
 62
     4
100
AcDbLine
 10
-200.121590298513
 20
138.6353578560036
 30
0.0
 11
-201.1658834742519
 21
136.8265890176264
 31
0.0
  0
LINE
  5
14F
102
{ACAD_REACTORS
330
212
102
}
330
1F
100
AcDbEntity
  8
1
  6
Continuous
 62
     4
100
AcDbLine
 10
-199.4997991719081
 20
132.5814838841009
 30
0.0
 11
-199.4997991719081
 21
138.4687494257697
 31
0.0
  0
LINE
  5
150
102
{ACAD_REACTORS
330
212
102
}
330
1F
100
AcDbEntity
  8
1
  6
Continuous
 62
     4
100
AcDbLine
 10
-200.166232892844
 20
135.3154031274265
 30
0.0
 11
-200.166232892844
 21
132.5814838841009
 31
0.0
  0
LINE
  5
151
102
{ACAD_REACTORS
330
212
102
}
330
1F
100
AcDbEntity
  8
1
  6
Continuous
 62
     4
100
AcDbLine
 10
-202.1655340556588
 20
134.1051741030872
 30
0.0
 11
-202.1655340556588
 21
135.532129737999
 31
0.0
  0
LINE
  5
152
102
{ACAD_REACTORS
330
212
102
}
330
1F
100
AcDbEntity
  8
1
  6
Continuous
 62
     4
100
AcDbLine
 10
-202.8319677765929
 20
135.3154031274265
 30
0.0
 11
-202.8319677765929
 21
134.1051741030872
 31
0.0
  0
LINE
  5
153
102
{ACAD_REACTORS
330
212
102
}
330
1F
100
AcDbEntity
  8
1
  6
Continuous
 62
     4
100
AcDbLine
 10
-202.210176649988
 20
138.6353578560036
 30
0.0
 11
-201.1658834742519
 21
136.8265890176264
 31
0.0
  0
LINE
  5
154
102
{ACAD_REACTORS
330
212
102
}
330
1F
100
AcDbEntity
  8
1
  6
Continuous
 62
     4
100
AcDbLine
 10
-202.8319677765929
 20
135.3154031274265
 30
0.0
 11
-202.8319677765929
 21
138.4687494257697
 31
0.0
  0
LINE
  5
155
102
{ACAD_REACTORS
330
212
102
}
330
1F
100
AcDbEntity
  8
1
  6
Continuous
 62
     4
100
AcDbLine
 10
-202.1655340556588
 20
137.2251671725629
 30
0.0
 11
-202.1655340556588
 21
135.532129737999
 31
0.0
  0
LINE
  5
156
102
{ACAD_REACTORS
330
212
102
}
330
1F
100
AcDbEntity
  8
1
  6
Continuous
 62
     4
100
AcDbLine
 10
-201.3101706073256
 20
135.7436342211037
 30
0.0
 11
-202.1655340556588
 21
137.2251671725629
 31
0.0
  0
LINE
  5
157
102
{ACAD_REACTORS
330
212
102
}
330
1F
100
AcDbEntity
  8
1
  6
Continuous
 62
     4
100
AcDbLine
 10
-200.166232892844
 20
137.2251671725629
 30
0.0
 11
-201.0215963411836
 21
135.7436342211037
 31
0.0
  0
LINE
  5
158
102
{ACAD_REACTORS
330
212
102
}
330
1F
100
AcDbEntity
  8
1
  6
Continuous
 62
     4
100
AcDbLine
 10
-200.166232892844
 20
135.3154031274265
 30
0.0
 11
-200.166232892844
 21
137.2251671725629
 31
0.0
  0
LINE
  5
159
102
{ACAD_REACTORS
330
216
102
}
330
1F
100
AcDbEntity
  8
1
  6
Continuous
 62
     4
100
AcDbLine
 10
-209.7454989270289
 20
135.6699237767027
 30
0.0
 11
-201.3312409545668
 21
140.4794455977137
 31
0.0
  0
LINE
  5
15A
102
{ACAD_REACTORS
330
216
102
}
330
1F
100
AcDbEntity
  8
1
  6
Continuous
 62
     4
100
AcDbLine
 10
-201.0005232111697
 20
140.4794440070888
 30
0.0
 11
-192.5861734007675
 21
135.6697623077337
 31
0.0
  0
LINE
  5
15B
102
{ACAD_REACTORS
330
216
102
}
330
1F
100
AcDbEntity
  8
1
  6
Continuous
 62
     4
100
AcDbLine
 10
-192.5861734007675
 20
135.3804710021365
 30
0.0
 11
-201.0005232111697
 21
130.5707893027808
 31
0.0
  0
LINE
  5
15C
102
{ACAD_REACTORS
330
216
102
}
330
1F
100
AcDbEntity
  8
1
  6
Continuous
 62
     4
100
AcDbLine
 10
-201.3312409545668
 20
130.5707877121561
 30
0.0
 11
-209.7454989270289
 21
135.3803095331679
 31
0.0
  0
LINE
  5
15D
102
{ACAD_REACTORS
330
216
102
}
330
1F
100
AcDbEntity
  8
1
  6
Continuous
 62
     4
100
AcDbLine
 10
-209.3273635979266
 20
135.5251166549348
 30
0.0
 11
-201.1658834742519
 21
140.1901527014921
 31
0.0
  0
LINE
  5
15E
102
{ACAD_REACTORS
330
216
102
}
330
1F
100
AcDbEntity
  8
1
  6
Continuous
 62
     4
100
AcDbLine
 10
-201.1658834742519
 20
140.1901527014921
 30
0.0
 11
-193.0045855698316
 21
135.5251166549348
 31
0.0
  0
LINE
  5
15F
102
{ACAD_REACTORS
330
216
102
}
330
1F
100
AcDbEntity
  8
1
  6
Continuous
 62
     4
100
AcDbLine
 10
-193.0045855698316
 20
135.5251166549348
 30
0.0
 11
-201.1658834742519
 21
130.8600806083778
 31
0.0
  0
LINE
  5
160
102
{ACAD_REACTORS
330
216
102
}
330
1F
100
AcDbEntity
  8
1
  6
Continuous
 62
     4
100
AcDbLine
 10
-201.1658834742519
 20
130.8600806083778
 30
0.0
 11
-209.3273635979266
 21
135.5251166549348
 31
0.0
  0
LINE
  5
161
330
1F
100
AcDbEntity
  8
1
  6
DOT_CENTER
 62
     2
100
AcDbLine
 10
-201.1654521665268
 20
129.328714579773
 30
0.0
 11
-201.1654521665268
 21
75.58274274923419
 31
0.0
  0
LINE
  5
162
330
1F
100
AcDbEntity
  8
1
  6
DOT_CENTER
 62
     2
100
AcDbLine
 10
-84.24919925683398
 20
67.5201144923303
 30
0.0
 11
-84.24919925683398
 21
61.6201144923303
 31
0.0
  0
LINE
  5
163
330
1F
100
AcDbEntity
  8
1
  6
DOT_CENTER
 62
     2
100
AcDbLine
 10
-201.1654521665268
 20
67.5261117236856
 30
0.0
 11
-201.1654521665268
 21
62.5261117236856
 31
0.0
  0
LINE
  5
164
330
1F
100
AcDbEntity
  8
1
  6
DOT_CENTER
 62
     2
100
AcDbLine
 10
-201.1654521665268
 20
54.9647924050907
 30
0.0
 11
-201.1654521665268
 21
47.8647924050907
 31
0.0
  0
ARC
  5
165
330
1F
100
AcDbEntity
  8
0
  6
Continuous
 62
     7
100
AcDbCircle
 10
-65.74919925683398
 20
149.5396487284326
 30
0.0
 40
2.999999999999993
100
AcDbArc
 50
0.0
 51
88.50000000000158
  0
ARC
  5
166
330
1F
100
AcDbEntity
  8
0
  6
Continuous
 62
     7
100
AcDbCircle
 10
-102.749199256834
 20
149.5396487284326
 30
0.0
 40
2.999999999999901
100
AcDbArc
 50
91.49999999999761
 51
180.0
  0
ARC
  5
167
102
{ACAD_REACTORS
330
215
102
}
330
1F
100
AcDbEntity
  8
1
  6
Continuous
 62
     4
100
AcDbCircle
 10
-197.1672811486304
 20
134.1051741030872
 30
0.0
 40
0.3332168604687467
100
AcDbArc
 50
299.9816393688798
 51
0.0
  0
ARC
  5
168
102
{ACAD_REACTORS
330
215
102
}
330
1F
100
AcDbEntity
  8
1
  6
Continuous
 62
     4
100
AcDbCircle
 10
-197.1672811486304
 20
134.1051741030872
 30
0.0
 40
0.3332168604683829
100
AcDbArc
 50
0.0
 51
119.9816393686273
  0
ARC
  5
169
102
{ACAD_REACTORS
330
215
102
}
330
1F
100
AcDbEntity
  8
1
  6
Continuous
 62
     4
100
AcDbCircle
 10
-197.1672811486304
 20
135.5251166549348
 30
0.0
 40
0.3332168604678145
100
AcDbArc
 50
270.0
 51
90.0
  0
ARC
  5
16A
102
{ACAD_REACTORS
330
215
102
}
330
1F
100
AcDbEntity
  8
1
  6
Continuous
 62
     4
100
AcDbCircle
 10
-197.1672811486304
 20
136.9450029005367
 30
0.0
 40
0.333216860467637
100
AcDbArc
 50
240.0183606313825
 51
60.01836063102498
  0
ARC
  5
16B
102
{ACAD_REACTORS
330
214
102
}
330
1F
100
AcDbEntity
  8
1
  6
Continuous
 62
     4
100
AcDbCircle
 10
-205.1644857998698
 20
134.1051741030872
 30
0.0
 40
0.3332168604674166
100
AcDbArc
 50
180.0
 51
0.0
  0
ARC
  5
16C
102
{ACAD_REACTORS
330
214
102
}
330
1F
100
AcDbEntity
  8
1
  6
Continuous
 62
     4
100
AcDbCircle
 10
-205.1644857998698
 20
136.945059206783
 30
0.0
 40
0.3332168604675019
100
AcDbArc
 50
0.0
 51
180.0
  0
ARC
  5
16D
102
{ACAD_REACTORS
330
213
102
}
330
1F
100
AcDbEntity
  8
1
  6
Continuous
 62
     4
100
AcDbCircle
 10
-201.4991003347203
 20
132.0100663243658
 30
0.0
 40
0.3332168604685289
100
AcDbArc
 50
240.0183606309407
 51
60.01836063123436
  0
ARC
  5
16E
102
{ACAD_REACTORS
330
213
102
}
330
1F
100
AcDbEntity
  8
1
  6
Continuous
 62
     4
100
AcDbCircle
 10
-203.8316183579989
 20
137.7140211924805
 30
0.0
 40
0.3332168604682977
100
AcDbArc
 50
0.0
 51
180.0
  0
ARC
  5
16F
102
{ACAD_REACTORS
330
212
102
}
330
1F
100
AcDbEntity
  8
1
  6
Continuous
 62
     4
100
AcDbCircle
 10
-199.8330160323793
 20
132.5814838841009
 30
0.0
 40
0.3332168604646881
100
AcDbArc
 50
180.0
 51
0.0
  0
ARC
  5
170
102
{ACAD_REACTORS
330
212
102
}
330
1F
100
AcDbEntity
  8
1
  6
Continuous
 62
     4
100
AcDbCircle
 10
-202.4987509161263
 20
134.1051741030872
 30
0.0
 40
0.3332168604665924
100
AcDbArc
 50
180.0
 51
0.0
  0
ARC
  5
171
102
{ACAD_REACTORS
330
216
102
}
330
1F
100
AcDbEntity
  8
1
  6
Continuous
 62
     4
100
AcDbCircle
 10
-201.1658834742519
 20
130.8600806083778
 30
0.0
 40
0.3332168604684407
100
AcDbArc
 50
240.2480640654748
 51
270.0
  0
ARC
  5
172
102
{ACAD_REACTORS
330
216
102
}
330
1F
100
AcDbEntity
  8
1
  6
Continuous
 62
     4
100
AcDbCircle
 10
-201.1658834742519
 20
140.1901527014921
 30
0.0
 40
0.3332168604684495
100
AcDbArc
 50
60.24751292418638
 51
90.0
  0
ARC
  5
173
102
{ACAD_REACTORS
330
216
102
}
330
1F
100
AcDbEntity
  8
1
  6
Continuous
 62
     4
100
AcDbCircle
 10
-201.1658834742519
 20
140.1901527014921
 30
0.0
 40
0.333216860467985
100
AcDbArc
 50
90.0
 51
119.7519359345374
  0
ARC
  5
174
102
{ACAD_REACTORS
330
216
102
}
330
1F
100
AcDbEntity
  8
1
  6
Continuous
 62
     4
100
AcDbCircle
 10
-192.6688535323054
 20
135.5251166549348
 30
0.0
 40
0.1666084302326133
100
AcDbArc
 50
299.7524870748638
 51
60.24751292523318
  0
ARC
  5
175
102
{ACAD_REACTORS
330
216
102
}
330
1F
100
AcDbEntity
  8
1
  6
Continuous
 62
     4
100
AcDbCircle
 10
-201.1658834742519
 20
130.8600806083778
 30
0.0
 40
0.3332168604678998
100
AcDbArc
 50
270.0
 51
299.7524870757869
  0
ARC
  5
176
102
{ACAD_REACTORS
330
216
102
}
330
1F
100
AcDbEntity
  8
1
  6
Continuous
 62
     4
100
AcDbCircle
 10
-209.6627283471078
 20
135.5251166549348
 30
0.0
 40
0.1667934993192977
100
AcDbArc
 50
119.751935934672
 51
240.2480640651633
  0
CIRCLE
  5
177
330
1F
100
AcDbEntity
  8
1
  6
Continuous
 62
     7
100
AcDbCircle
 10
-84.24919925683398
 20
87.52511665493479
 30
0.0
 40
2.399999999984516
  0
CIRCLE
  5
178
330
1F
100
AcDbEntity
  8
1
  6
Continuous
 62
     7
100
AcDbCircle
 10
-84.24919925683398
 20
87.52511665493479
 30
0.0
 40
3.899780834654848
  0
SPLINE
  5
179
330
1F
100
AcDbEntity
  8
0
  6
Continuous
 62
     7
100
AcDbSpline
210
0.0
220
0.0
230
1.0
 70
     8
 71
     3
 72
    20
 73
    16
 74
    14
 42
0.000000001
 43
0.0000000001
 44
0.00000001
 40
0.0
 40
0.0
 40
0.0
 40
0.0
 40
0.4944090051157295
 40
1.1575276446884
 40
1.972350716871897
 40
2.47803296008913
 40
3.1052828670985
 40
3.653309231880481
 40
4.078619211257782
 40
4.416840616098242
 40
4.833120472812927
 40
5.135900745568441
 40
5.336102457067023
 40
5.570085759977509
 40
5.728558152757518
 40
5.728558152757518
 40
5.728558152757518
 40
5.728558152757518
 10
-69.37542096341312
 20
97.52810592880122
 30
0.0
 10
-69.21062331304766
 20
97.529438596994
 30
0.0
 10
-68.8247932934359
 20
97.53255867008612
 30
0.0
 10
-68.16735327920489
 20
97.53633976059322
 30
0.0
 10
-67.50614939402385
 20
97.53881339434713
 30
0.0
 10
-66.85689859004978
 20
97.5400277850361
 30
0.0
 10
-66.29657880326403
 20
97.54019955836155
 30
0.0
 10
-65.76305034178263
 20
97.53944745297262
 30
0.0
 10
-65.32586618146958
 20
97.5381479121747
 30
0.0
 10
-64.93259949952713
 20
97.53641985084201
 30
0.0
 10
-64.58017817583914
 20
97.53432735505862
 30
0.0
 10
-64.27376777662077
 20
97.53181900305768
 30
0.0
 10
-64.02812359678877
 20
97.52946525420195
 30
0.0
 10
-63.83059159741279
 20
97.52653473016018
 30
0.0
 10
-63.69977661383698
 20
97.52552499221277
 30
0.0
 10
-63.64695392923076
 20
97.52511725630247
 30
0.0
 11
-69.37542096341312
 21
97.52810592880122
 31
0.0
 11
-68.88102682129943
 21
97.53193954804563
 31
0.0
 11
-68.21791970948723
 21
97.5358495974154
 31
0.0
 11
-67.40310229256383
 21
97.53888539920992
 31
0.0
 11
-66.89742093970577
 21
97.53983433819806
 31
0.0
 11
-66.2701710590405
 21
97.54001615067013
 31
0.0
 11
-65.72214525948075
 21
97.53922905672458
 31
0.0
 11
-65.2968372052861
 21
97.53794937022907
 31
0.0
 11
-64.95861909647735
 21
97.53645619641108
 31
0.0
 11
-64.54234695294653
 21
97.53392210270887
 31
0.0
 11
-64.23957673702878
 21
97.53145432511687
 31
0.0
 11
-64.03938544782486
 21
97.52941152908205
 31
0.0
 11
-63.80542035690101
 21
97.52649223639249
 31
0.0
 11
-63.64695392923076
 21
97.52511725630247
 31
0.0
  0
SPLINE
  5
17A
330
1F
100
AcDbEntity
  8
0
  6
Continuous
 62
     7
100
AcDbSpline
210
0.0
220
0.0
230
1.0
 70
     8
 71
     3
 72
    17
 73
    13
 74
    11
 42
0.000000001
 43
0.0000000001
 44
0.00000001
 40
0.0
 40
0.0
 40
0.0
 40
0.0
 40
0.1578330769424996
 40
0.3653413961017355
 40
1.06202518398409
 40
2.034842335726617
 40
2.564277112249758
 40
3.270110252011258
 40
4.028314472460004
 40
4.703718777168101
 40
5.251269489027911
 40
5.873599119509192
 40
5.873599119509192
 40
5.873599119509192
 40
5.873599119509192
 10
-62.83061118973282
 20
104.902998755587
 30
0.0
 10
-62.86381925977806
 20
104.8618209727223
 30
0.0
 10
-62.94068706025154
 20
104.7665054027436
 30
0.0
 10
-63.24573952179104
 20
104.5762104196878
 30
0.0
 10
-63.86418005247251
 20
104.4269957833143
 30
0.0
 10
-64.59730480984993
 20
104.3942711371713
 30
0.0
 10
-65.33326656558086
 20
104.4187511392448
 30
0.0
 10
-65.99566531390954
 20
104.4747955403074
 30
0.0
 10
-66.70314570756472
 20
104.5660629046714
 30
0.0
 10
-67.35484162893495
 20
104.6733657889012
 30
0.0
 10
-67.9592927896461
 20
104.7876475542151
 30
0.0
 10
-68.34037565481027
 20
104.8704585136264
 30
0.0
 10
-68.5430965239403
 20
104.9145106330169
 30
0.0
 11
-62.83061118973282
 21
104.902998755587
 31
0.0
 11
-62.93547460996606
 21
104.7850371283844
 31
0.0
 11
-63.10724226944703
 21
104.6686087313918
 31
0.0
 11
-63.7743381696811
 21
104.4677322566954
 31
0.0
 11
-64.74506753591103
 21
104.4040321229882
 31
0.0
 11
-65.2742411556865
 21
104.4206592860048
 31
0.0
 11
-65.97771901082533
 21
104.4782728983499
 31
0.0
 11
-66.72982950541703
 21
104.5742074788488
 31
0.0
 11
-67.39638335277832
 21
104.6831888691285
 31
0.0
 11
-67.9343313713841
 21
104.7852854487112
 31
0.0
 11
-68.5430965239403
 21
104.9145106330169
 31
0.0
  0
SPLINE
  5
17B
330
1F
100
AcDbEntity
  8
0
  6
Continuous
 62
     7
100
AcDbSpline
210
0.0
220
0.0
230
1.0
 70
     8
 71
     3
 72
    17
 73
    13
 74
    11
 42
0.000000001
 43
0.0000000001
 44
0.00000001
 40
0.0
 40
0.0
 40
0.0
 40
0.0
 40
1.096736791789292
 40
1.972350276662078
 40
3.075580050031522
 40
4.078618124845286
 40
4.416839529652493
 40
4.833119386394661
 40
5.051789063080392
 40
5.336101356253566
 40
5.5700847102109
 40
5.728557458340948
 40
5.728557458340948
 40
5.728557458340948
 40
5.728557458340948
 10
-69.37542096341312
 20
103.5281059288015
 30
0.0
 10
-69.0098519690687
 20
103.5308508489142
 30
0.0
 10
-68.35241974591935
 20
103.5357872466247
 30
0.0
 10
-67.32723121962586
 20
103.539479848134
 30
0.0
 10
-66.33327032470524
 20
103.5405880972538
 30
0.0
 10
-65.5184403707799
 20
103.5389906892773
 30
0.0
 10
-64.93259951156911
 20
103.5364202079761
 30
0.0
 10
-64.60821453304331
 20
103.5344950514087
 30
0.0
 10
-64.30180366789024
 20
103.5320633779477
 30
0.0
 10
-64.05615774725882
 20
103.5298621465215
 30
0.0
 10
-63.83059141351015
 20
103.5265376018831
 30
0.0
 10
-63.6997763207582
 20
103.5255253902002
 30
0.0
 10
-63.64695352831913
 20
103.5251166549353
 30
0.0
 11
-69.37542096341312
 21
103.5281059288015
 31
0.0
 11
-68.27870941169189
 21
103.5355465535057
 31
0.0
 11
-67.40310229256337
 21
103.5388853992099
 31
0.0
 11
-66.29987311600499
 21
103.5400329664319
 31
0.0
 11
-65.29683720528564
 21
103.5379493702291
 31
0.0
 11
-64.95861909650723
 21
103.5364561964112
 31
0.0
 11
-64.54234695294608
 21
103.5339221027089
 31
0.0
 11
-64.32368402166091
 21
103.5322045504673
 31
0.0
 11
-64.03938544782486
 21
103.5294115290821
 31
0.0
 11
-63.80542030678893
 21
103.5264921612217
 31
0.0
 11
-63.64695352831913
 21
103.5251166549353
 31
0.0
  0
SPLINE
  5
17C
330
1F
100
AcDbEntity
  8
0
  6
Continuous
 62
     7
100
AcDbSpline
210
0.0
220
0.0
230
1.0
 70
     8
 71
     3
 72
    18
 73
    14
 74
    12
 42
0.000000001
 43
0.0000000001
 44
0.00000001
 40
0.0
 40
0.0
 40
0.0
 40
0.0
 40
0.4944090052367241
 40
1.157527644801634
 40
1.972350716872977
 40
2.478032959942758
 40
3.105282867098983
 40
3.653309232158432
 40
4.078619211258663
 40
4.808180433377442
 40
5.336101940499976
 40
5.570085294452833
 40
5.728558042589105
 40
5.728558042589105
 40
5.728558042589105
 40
5.728558042589105
 10
-69.37542096341312
 20
100.5281059288012
 30
0.0
 10
-69.21062331298637
 20
100.5294385989865
 30
0.0
 10
-68.82479329328775
 20
100.5325586767432
 30
0.0
 10
-68.16735327956027
 20
100.536339719376
 30
0.0
 10
-67.50614939234121
 20
100.5388135552319
 30
0.0
 10
-66.85689859416001
 20
100.5400273991017
 30
0.0
 10
-66.29657878467304
 20
100.540201320547
 30
0.0
 10
-65.7630503953863
 20
100.5394423511361
 30
0.0
 10
-65.19541990322013
 20
100.5377788139639
 30
0.0
 10
-64.63449727880771
 20
100.5347739873779
 30
0.0
 10
-64.13735316787697
 20
100.5310016138792
 30
0.0
 10
-63.83059134415199
 20
100.5265434774735
 30
0.0
 10
-63.69977630080922
 20
100.5255270802572
 30
0.0
 10
-63.64695352831913
 20
100.5251166549353
 30
0.0
 11
-69.37542096341312
 21
100.5281059288012
 31
0.0
 11
-68.88102682117992
 21
100.5319395480465
 31
0.0
 11
-68.21791970937605
 21
100.535849597416
 31
0.0
 11
-67.40310229256474
 21
100.5388853992099
 31
0.0
 11
-66.89742093985407
 21
100.5398343381979
 31
0.0
 11
-66.27017105904187
 21
100.5400161506701
 31
0.0
 11
-65.72214525920461
 21
100.5392290567239
 31
0.0
 11
-65.296837205287
 21
100.5379493702291
 31
0.0
 11
-64.56728614282983
 21
100.5340991625674
 31
0.0
 11
-64.03938544782484
 21
100.5294115290821
 31
0.0
 11
-63.80542030679302
 21
100.5264921612217
 31
0.0
 11
-63.64695352831913
 21
100.5251166549353
 31
0.0
  0
SPLINE
  5
17D
330
1F
100
AcDbEntity
  8
0
  6
Continuous
 62
     7
100
AcDbSpline
210
0.0
220
0.0
230
1.0
 70
     8
 71
     3
 72
    18
 73
    14
 74
    12
 42
0.000000001
 43
0.0000000001
 44
0.00000001
 40
0.0
 40
0.0
 40
0.0
 40
0.0
 40
0.0817515068182884
 40
0.1898851348932512
 40
0.5190517259303506
 40
0.939350284081486
 40
1.447588748179193
 40
1.984138848739477
 40
2.421002666234545
 40
3.047781951372829
 40
3.553180607941086
 40
4.5343887104781
 40
5.525375044270729
 40
5.525375044270729
 40
5.525375044270729
 40
5.525375044270729
 10
-62.85012796073269
 20
96.02698515926262
 30
0.0
 10
-62.87737573941209
 20
96.02737093966074
 30
0.0
 10
-62.94066445803485
 20
96.0282670120823
 30
0.0
 10
-63.1136697742301
 20
96.03030982130896
 30
0.0
 10
-63.39952381283891
 20
96.03299662522467
 30
0.0
 10
-63.81874889534163
 20
96.03586613905502
 30
0.0
 10
-64.30710625797013
 20
96.03815417970448
 30
0.0
 10
-64.80098876320599
 20
96.03952446007389
 30
0.0
 10
-65.33438620390703
 20
96.04018739205891
 30
0.0
 10
-65.85740046233724
 20
96.04003292586738
 30
0.0
 10
-66.56186119709814
 20
96.03868503719248
 30
0.0
 10
-67.38772178685429
 20
96.03561249412647
 30
0.0
 10
-68.04510146490729
 20
96.03061636934792
 30
0.0
 10
-68.37542096341312
 20
96.02810592880122
 30
0.0
 11
-62.85012796073269
 21
96.02698515926262
 31
0.0
 11
-62.93187166096136
 21
96.02811493238826
 31
0.0
 11
-63.03999743188942
 21
96.0294184378047
 31
0.0
 11
-63.36914876243914
 21
96.03258801871331
 31
0.0
 11
-63.78943703410376
 21
96.03552854264834
 31
0.0
 11
-64.29766971784929
 21
96.03795249804956
 31
0.0
 11
-64.83421768475314
 21
96.03946564861063
 31
0.0
 11
-65.27108115470455
 21
96.04001670426113
 31
0.0
 11
-65.89786041317691
 21
96.03983382180837
 31
0.0
 11
-66.40325817912125
 21
96.03888499725794
 31
0.0
 11
-67.38445856469448
 21
96.03499333142632
 31
0.0
 11
-68.37542096341312
 21
96.02810592880122
 31
0.0
  0
SPLINE
  5
17E
330
1F
100
AcDbEntity
  8
0
  6
Continuous
 62
     7
100
AcDbSpline
210
0.0
220
0.0
230
1.0
 70
     8
 71
     3
 72
    20
 73
    16
 74
    14
 42
0.000000001
 43
0.0000000001
 44
0.00000001
 40
0.0
 40
0.0
 40
0.0
 40
0.0
 40
0.0817515216404042
 40
0.1898851355537001
 40
0.4132598293614644
 40
0.6928608267413785
 40
1.047479107222173
 40
1.447588886651161
 40
1.984138987338248
 40
2.421002804711997
 40
2.977896387774112
 40
3.55318075114326
 40
4.10720742746978
 40
4.774885981426609
 40
5.525375576867171
 40
5.525375576867171
 40
5.525375576867171
 40
5.525375576867171
 10
-62.85012796058945
 20
99.02698512144924
 30
0.0
 10
-62.87737574397584
 20
99.02737091355715
 30
0.0
 10
-62.94066446227614
 20
99.02826701308149
 30
0.0
 10
-63.07840824531026
 20
99.02989349832819
 30
0.0
 10
-63.28210133486357
 20
99.03192632042565
 30
0.0
 10
-63.56795713821137
 20
99.03419874545912
 30
0.0
 10
-63.91272712397793
 20
99.03632262854336
 30
0.0
 10
-64.343149021064
 20
99.03825427817912
 30
0.0
 10
-64.8009887619903
 20
99.03952407889946
 30
0.0
 10
-65.3110909970553
 20
99.04015967720699
 30
0.0
 10
-65.8341051249849
 20
99.04005065555373
 30
0.0
 10
-66.39617272227174
 20
99.03905470948203
 30
0.0
 10
-66.99516595837866
 20
99.03702972466927
 30
0.0
 10
-67.65255693107169
 20
99.03377650200369
 30
0.0
 10
-68.12526533763072
 20
99.03006829269049
 30
0.0
 10
-68.37542096341312
 20
99.02810592880122
 30
0.0
 11
-62.85012796058945
 21
99.02698512144924
 31
0.0
 11
-62.93187167514217
 21
99.02811492783908
 31
0.0
 11
-63.03999743188942
 21
99.0294184378047
 31
0.0
 11
-63.26336075612844
 21
99.0316721487716
 31
0.0
 11
-63.5429526656695
 21
99.03392644509428
 31
0.0
 11
-63.89756406044184
 21
99.0361363197829
 31
0.0
 11
-64.29766971784929
 21
99.03795249804956
 31
0.0
 11
-64.83421768487747
 21
99.03946564861081
 31
0.0
 11
-65.27108115470455
 21
99.04001670426113
 31
0.0
 11
-65.8279747273896
 21
99.03990916508904
 31
0.0
 11
-66.40325817912125
 21
99.03888499725794
 31
0.0
 11
-66.95728173819317
 21
99.03702646928934
 31
0.0
 11
-67.6249515502115
 21
99.03360967253063
 31
0.0
 11
-68.37542096341312
 21
99.02810592880122
 31
0.0
  0
SPLINE
  5
17F
330
1F
100
AcDbEntity
  8
0
  6
Continuous
 62
     7
100
AcDbSpline
210
0.0
220
0.0
230
1.0
 70
     8
 71
     3
 72
    19
 73
    15
 74
    13
 42
0.000000001
 43
0.0000000001
 44
0.00000001
 40
0.0
 40
0.0
 40
0.0
 40
0.0
 40
0.0817515216028336
 40
0.189885135557428
 40
0.3901497450306254
 40
0.6928608252483293
 40
1.10926286036296
 40
1.447588876964593
 40
1.918133872166662
 40
2.421002800821936
 40
2.977896384076538
 40
3.553180747232594
 40
4.53438885023522
 40
5.525375183562065
 40
5.525375183562065
 40
5.525375183562065
 40
5.525375183562065
 10
-62.85012796058263
 20
102.0269851214492
 30
0.0
 10
-62.87737574390333
 20
102.0273709148547
 30
0.0
 10
-62.94066446208118
 20
102.028267017408
 30
0.0
 10
-63.07070541607344
 20
102.0298025101746
 30
0.0
 10
-63.27439821102193
 20
102.0318616181328
 30
0.0
 10
-63.58084787100826
 20
102.0343154861935
 30
0.0
 10
-63.93332149545488
 20
102.0364276355209
 30
0.0
 10
-64.34174203455947
 20
102.0382154779869
 30
0.0
 10
-64.77898705799267
 20
102.0394802129798
 30
0.0
 10
-65.28908927878848
 20
102.0401627371224
 30
0.0
 10
-65.83410517867321
 20
102.0400565047481
 30
0.0
 10
-66.53856609844703
 20
102.0387732920562
 30
0.0
 10
-67.38772177776642
 20
102.0356120091568
 30
0.0
 10
-68.04510146197137
 20
102.0306162071628
 30
0.0
 10
-68.37542096341312
 20
102.0281059288012
 30
0.0
 11
-62.85012796058263
 21
102.0269851214492
 31
0.0
 11
-62.93187167513842
 21
102.0281149278391
 31
0.0
 11
-63.03999743188942
 21
102.0294184378047
 31
0.0
 11
-63.24025162909144
 21
102.0314605704334
 31
0.0
 11
-63.5429526656695
 21
102.0339264450943
 31
0.0
 11
-63.9593469936713
 21
102.0364599117284
 31
0.0
 11
-64.29766971784929
 21
102.0379524980496
 31
0.0
 11
-64.76821269331175
 21
102.03933117643
 31
0.0
 11
-65.27108115470455
 21
102.0400167042611
 31
0.0
 11
-65.82797472758844
 21
102.0399091650888
 31
0.0
 11
-66.40325817912125
 21
102.0388849972579
 31
0.0
 11
-67.3844585651614
 21
102.0349933314237
 31
0.0
 11
-68.37542096341312
 21
102.0281059288012
 31
0.0
  0
SPLINE
  5
180
330
1F
100
AcDbEntity
  8
0
  6
Continuous
 62
     7
100
AcDbSpline
210
0.0
220
0.0
230
1.0
 70
     8
 71
     3
 72
    27
 73
    23
 74
    21
 42
0.000000001
 43
0.0000000001
 44
0.00000001
 40
0.0
 40
0.0
 40
0.0
 40
0.0
 40
0.5352882167850769
 40
1.07547109472782
 40
1.666065421998967
 40
2.249056287193801
 40
2.915635297154005
 40
3.697663912033984
 40
4.03254693627153
 40
4.354687324692269
 40
4.677913432270741
 40
4.955103717350681
 40
5.231662547402238
 40
5.491933833560562
 40
5.722323967147887
 40
5.960034403270678
 40
6.156780963244805
 40
6.357175056730568
 40
6.529198704452504
 40
6.684358309568761
 40
6.872669642302486
 40
7.064374889912046
 40
7.064374889912046
 40
7.064374889912046
 40
7.064374889912046
 10
-178.9675936351471
 20
105.0251166549348
 30
0.0
 10
-178.7889604876091
 20
105.0196763810263
 30
0.0
 10
-178.4300607767796
 20
105.0087460746324
 30
0.0
 10
-177.8833583052102
 20
104.9026828307629
 30
0.0
 10
-177.327042837316
 20
104.7743676601967
 30
0.0
 10
-176.7239173510727
 20
104.6612849293262
 30
0.0
 10
-176.055438800942
 20
104.552773967493
 30
0.0
 10
-175.4651297442898
 20
104.4802058858329
 30
0.0
 10
-174.9872483239299
 20
104.4383057006188
 30
0.0
 10
-174.6611360552878
 20
104.4173806552644
 30
0.0
 10
-174.3538005591158
 20
104.4056407363389
 30
0.0
 10
-174.0614541959351
 20
104.4026519852706
 30
0.0
 10
-173.7901192189165
 20
104.4079871944554
 30
0.0
 10
-173.5346940737468
 20
104.421801657841
 30
0.0
 10
-173.2928714920418
 20
104.4441165573558
 30
0.0
 10
-173.0732118712608
 20
104.4741984374006
 30
0.0
 10
-172.8652188811003
 20
104.5137640916399
 30
0.0
 10
-172.6812142086236
 20
104.560441108511
 30
0.0
 10
-172.5140825998324
 20
104.6161499897151
 30
0.0
 10
-172.3569448121288
 20
104.685383678327
 30
0.0
 10
-172.2001279944816
 20
104.7744986028017
 30
0.0
 10
-172.1131691926657
 20
104.8675629067929
 30
0.0
 10
-172.0693014757617
 20
104.9145106330162
 30
0.0
 11
-178.9675936351471
 21
105.0251166549348
 31
0.0
 11
-178.4331792837747
 21
104.9945426655885
 31
0.0
 11
-177.9008098147466
 21
104.902998755587
 31
0.0
 11
-177.3236411192968
 21
104.7777871091775
 31
0.0
 11
-176.7509645692606
 21
104.6686087313916
 31
0.0
 11
-176.0928299805672
 21
104.5628427613377
 31
0.0
 11
-175.31653133119
 21
104.4683485158763
 31
0.0
 11
-174.9829139581099
 21
104.4392609165026
 31
0.0
 11
-174.6614246476918
 21
104.4187901265792
 31
0.0
 11
-174.3384256242483
 21
104.4066761861843
 31
0.0
 11
-174.0612479499835
 21
104.4040321229878
 31
0.0
 11
-173.7847477301485
 21
104.4097255340754
 31
0.0
 11
-173.5248727783988
 21
104.4240835230986
 31
0.0
 11
-173.2954847886913
 21
104.4455489327577
 31
0.0
 11
-173.0600375685551
 21
104.4782728983497
 31
0.0
 11
-172.8668365052641
 21
104.5154556624655
 31
0.0
 11
-172.672743088159
 21
104.5653108331245
 31
0.0
 11
-172.5098220995214
 21
104.6205275580497
 31
0.0
 11
-172.3678782269691
 21
104.6831888691282
 31
0.0
 11
-172.2071123686927
 21
104.7812475002936
 31
0.0
 11
-172.0693014757617
 21
104.9145106330162
 31
0.0
  0
SPLINE
  5
181
330
1F
100
AcDbEntity
  8
0
  6
Continuous
 62
     7
100
AcDbSpline
210
0.0
220
0.0
230
1.0
 70
     8
 71
     3
 72
    11
 73
     7
 74
     5
 42
0.000000001
 43
0.0000000001
 44
0.00000001
 40
0.0
 40
0.0
 40
0.0
 40
0.0
 40
0.6514292686043242
 40
1.345520173266591
 40
2.113999131883108
 40
2.97533728085866
 40
2.97533728085866
 40
2.97533728085866
 40
2.97533728085866
 10
-223.4322797644282
 20
109.5251166549348
 30
0.0
 10
-223.6501576104652
 20
109.5446511854175
 30
0.0
 10
-224.100181964211
 20
109.5849995634034
 30
0.0
 10
-224.7445961892882
 20
109.9003125787487
 30
0.0
 10
-225.3599193989879
 20
110.3787469490973
 30
0.0
 10
-225.7037649980718
 20
110.8016288201765
 30
0.0
 10
-225.8854831315944
 20
111.0251166549357
 30
0.0
 11
-223.4322797644282
 21
109.5251166549348
 31
0.0
 11
-224.0765685599974
 21
109.6213041950517
 31
0.0
 11
-224.7087273406358
 21
109.9079005390328
 31
0.0
 11
-225.3158351512836
 21
110.3790480950542
 31
0.0
 11
-225.8854831315944
 21
111.0251166549357
 31
0.0
  0
SPLINE
  5
182
330
1F
100
AcDbEntity
  8
0
  6
Continuous
 62
     7
100
AcDbSpline
210
0.0
220
0.0
230
1.0
 70
     8
 71
     3
 72
    23
 73
    19
 74
    17
 42
0.000000001
 43
0.0000000001
 44
0.00000001
 40
0.0
 40
0.0
 40
0.0
 40
0.0
 40
0.1747773771726103
 40
0.3800652462030016
 40
0.7072916960910657
 40
1.103879602800296
 40
1.572593847185634
 40
2.108612473078999
 40
2.416987283566957
 40
2.70902856995033
 40
3.048117450471322
 40
3.366051770733636
 40
4.148080385639665
 40
4.814659395593994
 40
5.397650260821724
 40
5.988244588053793
 40
6.528427465964269
 40
7.063715682778188
 40
7.063715682778188
 40
7.063715682778188
 40
7.063715682778188
 10
-230.2616028572918
 20
104.9145106330162
 30
0.0
 10
-230.2219379807559
 20
104.8714513197502
 30
0.0
 10
-230.1356840260948
 20
104.7778159202871
 30
0.0
 10
-229.9290642796752
 20
104.6584965312637
 30
0.0
 10
-229.6381608616778
 20
104.550143389101
 30
0.0
 10
-229.2481016796298
 20
104.4672882179345
 30
0.0
 10
-228.7833783336937
 20
104.4159787185674
 30
0.0
 10
-228.3455265413598
 20
104.4014462755848
 30
0.0
 10
-227.9667093617336
 20
104.4059198921016
 30
0.0
 10
-227.6537479771605
 20
104.4182699826935
 30
0.0
 10
-227.3380203978633
 20
104.4387421361353
 30
0.0
 10
-226.8601661261849
 20
104.4808958539351
 30
0.0
 10
-226.2754651363715
 20
104.5527738628732
 30
0.0
 10
-225.6069870669602
 20
104.6612849517546
 30
0.0
 10
-225.0038614738506
 20
104.774367654326
 30
0.0
 10
-224.447546033116
 20
104.9026828320305
 30
0.0
 10
-223.9008435550293
 20
105.0087460743825
 30
0.0
 10
-223.5419438450343
 20
105.019676380915
 30
0.0
 10
-223.3633106979064
 20
105.0251166549348
 30
0.0
 11
-230.2616028572918
 21
104.9145106330162
 31
0.0
 11
-230.1373692506393
 21
104.7915751005004
 31
0.0
 11
-229.9630261060843
 21
104.6831888691282
 31
0.0
 11
-229.657809295368
 21
104.565206466354
 31
0.0
 11
-229.2708667644984
 21
104.4782728983497
 31
0.0
 11
-228.805301861726
 21
104.4240293359763
 31
0.0
 11
-228.26965638307
 21
104.4040321229878
 31
0.0
 11
-227.9613004333113
 21
104.4074427004208
 31
0.0
 11
-227.6694796853617
 21
104.4187901265792
 31
0.0
 11
-227.3310896956317
 21
104.4405498107082
 31
0.0
 11
-227.0143730018634
 21
104.4683485158763
 31
0.0
 11
-226.2380743524736
 21
104.5628427613396
 31
0.0
 11
-225.5799397637928
 21
104.6686087313916
 31
0.0
 11
-225.0072632137143
 21
104.7777871091862
 31
0.0
 11
-224.4300945183068
 21
104.902998755587
 31
0.0
 11
-223.8977250492786
 21
104.9945426655885
 31
0.0
 11
-223.3633106979064
 21
105.0251166549348
 31
0.0
  0
SPLINE
  5
183
330
1F
100
AcDbEntity
  8
0
  6
Continuous
 62
     7
100
AcDbSpline
210
0.0
220
0.0
230
1.0
 70
     8
 71
     3
 72
    20
 73
    16
 74
    14
 42
0.000000001
 43
0.0000000001
 44
0.00000001
 40
0.0
 40
0.0
 40
0.0
 40
0.0
 40
0.0512991303894951
 40
0.1672647553934273
 40
0.35550689360011
 40
0.5970345301633363
 40
0.9002745071827005
 40
1.263916772889182
 40
1.686649243218639
 40
2.166680733476913
 40
2.690564618641182
 40
3.250078656712228
 40
3.837000630655639
 40
4.824963686749761
 40
5.820062892074697
 40
5.820062892074697
 40
5.820062892074697
 40
5.820062892074697
 10
-229.3823440113572
 20
103.528105928801
 30
0.0
 10
-229.3653344603421
 20
103.5299186946093
 30
0.0
 10
-229.3098735145811
 20
103.5358293773867
 30
0.0
 10
-229.1912208063266
 20
103.5366079486643
 30
0.0
 10
-229.0094095884252
 20
103.5395759962281
 30
0.0
 10
-228.7650358505485
 20
103.5399994740374
 30
0.0
 10
-228.4622462814069
 20
103.540152430556
 30
0.0
 10
-228.0990371075881
 20
103.539319730204
 30
0.0
 10
-227.6769056556118
 20
103.5379326228401
 30
0.0
 10
-227.2013595713944
 20
103.5360384549417
 30
0.0
 10
-226.6802211993316
 20
103.5338517648231
 30
0.0
 10
-226.1234525929445
 20
103.5315489060514
 30
0.0
 10
-225.4119913626189
 20
103.5288651351738
 30
0.0
 10
-224.555333811293
 20
103.5261287761574
 30
0.0
 10
-223.8943132180638
 20
103.5254552326036
 30
0.0
 10
-223.5626135635228
 20
103.5251172563022
 30
0.0
 11
-229.3823440113572
 21
103.528105928801
 31
0.0
 11
-229.331281050879
 21
103.5330227182745
 31
0.0
 11
-229.215370406832
 21
103.5365932602886
 31
0.0
 11
-229.0271422243643
 21
103.5388853992096
 31
0.0
 11
-228.7856168036362
 21
103.5399199770905
 31
0.0
 11
-228.4823768411066
 21
103.5400136574579
 31
0.0
 11
-228.1187352577579
 21
103.5393092014559
 31
0.0
 11
-227.6960049745727
 21
103.5379493702286
 31
0.0
 11
-227.2159771227523
 21
103.5360803840287
 31
0.0
 11
-226.6920977473372
 21
103.5339066444602
 31
0.0
 11
-226.1325883826525
 21
103.5316198074892
 31
0.0
 11
-225.545670563023
 21
103.5294115290818
 31
0.0
 11
-224.5577118169885
 21
103.5264932561608
 31
0.0
 11
-223.5626135635228
 21
103.5251172563022
 31
0.0
  0
SPLINE
  5
184
330
1F
100
AcDbEntity
  8
0
  6
Continuous
 62
     7
100
AcDbSpline
210
0.0
220
0.0
230
1.0
 70
     8
 71
     3
 72
     9
 73
     5
 74
     3
 42
0.000000001
 43
0.0000000001
 44
0.00000001
 40
0.0
 40
0.0
 40
0.0
 40
0.0
 40
0.0014519825911971
 40
0.0027325677109788
 40
0.0027325677109788
 40
0.0027325677109788
 40
0.0027325677109788
 10
-229.3823440113572
 20
103.528105928801
 30
0.0
 10
-229.3828157240676
 20
103.5279909228951
 30
0.0
 10
-229.3837034700147
 20
103.5277745065353
 30
0.0
 10
-229.3846163081652
 20
103.5277442049621
 30
0.0
 10
-229.3850440997208
 20
103.5277300138233
 30
0.0
 11
-229.3823440113572
 21
103.528105928801
 31
0.0
 11
-229.3837662362931
 21
103.5278134708162
 31
0.0
 11
-229.3850440997208
 21
103.5277300138233
 31
0.0
  0
SPLINE
  5
185
330
1F
100
AcDbEntity
  8
0
  6
Continuous
 62
     7
100
AcDbSpline
210
0.0
220
0.0
230
1.0
 70
     8
 71
     3
 72
    21
 73
    17
 74
    15
 42
0.000000001
 43
0.0000000001
 44
0.00000001
 40
0.0
 40
0.0
 40
0.0
 40
0.0
 40
0.5780657008055026
 40
1.124986103764992
 40
1.879079665678291
 40
2.581637919776406
 40
3.243681308170308
 40
3.845386604339844
 40
4.136746526584085
 40
4.385876381686228
 40
4.61973965014477
 40
4.85824986799217
 40
5.22700203747271
 40
5.595065211006244
 40
5.80963808085099
 40
5.975888496946288
 40
5.975888496946288
 40
5.975888496946288
 40
5.975888496946288
 10
-224.6382829143266
 20
93.1479284815638
 30
0.0
 10
-224.826237732821
 20
93.19041396503164
 30
0.0
 10
-225.192020649125
 20
93.27309588743422
 30
0.0
 10
-225.806616096091
 20
93.3942831486477
 30
0.0
 10
-226.4651912644264
 20
93.50601079067872
 30
0.0
 10
-227.1656088629156
 20
93.59792192834414
 30
0.0
 10
-227.8187299189725
 20
93.6554975398063
 30
0.0
 10
-228.3370528666621
 20
93.67476664807202
 30
0.0
 10
-228.7178353446564
 20
93.67029340183174
 30
0.0
 10
-228.9757112739997
 20
93.65797141524874
 30
0.0
 10
-229.2153996148695
 20
93.63724749805883
 30
0.0
 10
-229.4933683850501
 20
93.60012582133021
 30
0.0
 10
-229.812390912307
 20
93.53349925349137
 30
0.0
 10
-230.1112949049903
 20
93.4236614122606
 30
0.0
 10
-230.3278047228405
 20
93.29370414669444
 30
0.0
 10
-230.4144646038862
 20
93.20027524364436
 30
0.0
 10
-230.4522964342964
 20
93.15948836431166
 30
0.0
 11
-224.6382829143266
 21
93.1479284815638
 31
0.0
 11
-225.2027201040206
 21
93.27271070872753
 31
0.0
 11
-225.7392297073582
 21
93.37891510138765
 31
0.0
 11
-226.4828682380474
 21
93.50405037172406
 31
0.0
 11
-227.179569457448
 21
93.59457943454949
 31
0.0
 11
-227.8391694527769
 21
93.65140631312588
 31
0.0
 11
-228.4405221918202
 21
93.67200112983359
 31
0.0
 11
-228.7318578865578
 21
93.66824384477431
 31
0.0
 11
-228.9806907241152
 21
93.65608228279065
 31
0.0
 11
-229.2136550386763
 21
93.63559676595368
 31
0.0
 11
-229.4500104790182
 21
93.60360880360544
 31
0.0
 11
-229.8102325152672
 21
93.52475294323456
 31
0.0
 11
-230.1536894079497
 21
93.39243566647441
 31
0.0
 11
-230.3343338138117
 21
93.27663794366985
 31
0.0
 11
-230.4522964342964
 21
93.15948836431166
 31
0.0
  0
SPLINE
  5
186
330
1F
100
AcDbEntity
  8
0
  6
Continuous
 62
     7
100
AcDbSpline
210
0.0
220
0.0
230
1.0
 70
     8
 71
     3
 72
    20
 73
    16
 74
    14
 42
0.000000001
 43
0.0000000001
 44
0.00000001
 40
0.0
 40
0.0
 40
0.0
 40
0.0
 40
0.9961127683430572
 40
1.985023929190192
 40
2.571670457732866
 40
3.130902583837518
 40
3.654508303558472
 40
4.134275588365694
 40
4.556742380650476
 40
4.920158229567079
 40
5.223215957836849
 40
5.46461041875964
 40
5.652821389041062
 40
5.768769850587224
 40
5.820062898087111
 40
5.820062898087111
 40
5.820062898087111
 40
5.820062898087111
 10
-224.6678318128168
 20
96.02511725630224
 30
0.0
 10
-224.9998693215299
 20
96.02545579583101
 30
0.0
 10
-225.6615438036874
 20
96.0261304420242
 30
0.0
 10
-226.518763421295
 20
96.02887043481465
 30
0.0
 10
-227.2303548959997
 20
96.03155567471137
 30
0.0
 10
-227.786844995834
 20
96.03385768759216
 30
0.0
 10
-228.3077086099005
 20
96.03604312545627
 30
0.0
 10
-228.7829853479609
 20
96.03793579297503
 30
0.0
 10
-229.2048647047836
 20
96.0393214068628
 30
0.0
 10
-229.5678490958588
 20
96.04015277821686
 30
0.0
 10
-229.8704580614714
 20
96.03999913833158
 30
0.0
 10
-230.1147162444667
 20
96.03957508731233
 30
0.0
 10
-230.2964669785632
 20
96.03660756715891
 30
0.0
 10
-230.4151015311918
 20
96.03582875819288
 30
0.0
 10
-230.470554736539
 20
96.02991857758448
 30
0.0
 10
-230.4875622606512
 20
96.02810592880145
 30
0.0
 11
-224.6678318128168
 21
96.02511725630224
 31
0.0
 11
-225.6639436270659
 21
96.02649557270199
 31
0.0
 11
-226.6528504684234
 21
96.02941843780458
 31
0.0
 11
-227.2394928415235
 21
96.0316264978498
 31
0.0
 11
-227.7987202953218
 21
96.0339124944543
 31
0.0
 11
-228.3223215081115
 21
96.03608497779507
 31
0.0
 11
-228.8020851581857
 21
96.03795249804911
 31
0.0
 11
-229.2245497668666
 21
96.03931080122102
 31
0.0
 11
-229.5879649353921
 21
96.04001402221678
 31
0.0
 11
-229.8910226489351
 21
96.0399196059308
 31
0.0
 11
-230.1324148926683
 21
96.03888499725748
 31
0.0
 11
-230.3206119043117
 21
96.03659281008416
 31
0.0
 11
-230.4365053809511
 21
96.03302240415732
 31
0.0
 11
-230.4875622606512
 21
96.02810592880145
 31
0.0
  0
SPLINE
  5
187
330
1F
100
AcDbEntity
  8
0
  6
Continuous
 62
     7
100
AcDbSpline
210
0.0
220
0.0
230
1.0
 70
     8
 71
     3
 72
    20
 73
    16
 74
    14
 42
0.000000001
 43
0.0000000001
 44
0.00000001
 40
0.0
 40
0.0
 40
0.0
 40
0.0
 40
0.9961127683509868
 40
1.985023929190306
 40
2.571670457731729
 40
3.130902583830697
 40
3.654508303549433
 40
4.134275588365806
 40
4.556742380610287
 40
4.920158229524019
 40
5.223215957812434
 40
5.464610418759553
 40
5.652821389046602
 40
5.768769850590439
 40
5.820062898087047
 40
5.820062898087047
 40
5.820062898087047
 40
5.820062898087047
 10
-224.6154666180321
 20
99.02511725630224
 30
0.0
 10
-224.9475041267478
 20
99.02545579583101
 30
0.0
 10
-225.6091786089054
 20
99.0261304420242
 30
0.0
 10
-226.4663982265126
 20
99.02887043481462
 30
0.0
 10
-227.1779897012124
 20
99.03155567471137
 30
0.0
 10
-227.7344798010436
 20
99.03385768759213
 30
0.0
 10
-228.2553434151106
 20
99.03604312545636
 30
0.0
 10
-228.7306201531598
 20
99.03793579297493
 30
0.0
 10
-229.1524995099712
 20
99.03932140686268
 30
0.0
 10
-229.5154839010383
 20
99.04015277821665
 30
0.0
 10
-229.8180928666642
 20
99.03999913833144
 30
0.0
 10
-230.0623510496757
 20
99.03957508731249
 30
0.0
 10
-230.2441017837812
 20
99.03660756715875
 30
0.0
 10
-230.3627363364101
 20
99.03582875819313
 30
0.0
 10
-230.4181895417553
 20
99.02991857758414
 30
0.0
 10
-230.4351970658664
 20
99.028105928801
 30
0.0
 11
-224.6154666180321
 21
99.02511725630224
 31
0.0
 11
-225.6115784322891
 21
99.02649557270199
 31
0.0
 11
-226.6004852736388
 21
99.02941843780458
 31
0.0
 11
-227.1871276467377
 21
99.03162649784979
 31
0.0
 11
-227.7463551005303
 21
99.0339124944543
 31
0.0
 11
-228.2699563133177
 21
99.0360849777951
 31
0.0
 11
-228.7497199634011
 21
99.03795249804911
 31
0.0
 11
-229.1721845720417
 21
99.03931080122085
 31
0.0
 11
-229.5355997405644
 21
99.0400140222166
 31
0.0
 11
-229.838657454126
 21
99.03991960593073
 31
0.0
 11
-230.0800496978835
 21
99.03888499725748
 31
0.0
 11
-230.2682467095326
 21
99.03659281008414
 31
0.0
 11
-230.3841401861696
 21
99.0330224041572
 31
0.0
 11
-230.4351970658664
 21
99.028105928801
 31
0.0
  0
SPLINE
  5
188
330
1F
100
AcDbEntity
  8
0
  6
Continuous
 62
     7
100
AcDbSpline
210
0.0
220
0.0
230
1.0
 70
     8
 71
     3
 72
     9
 73
     5
 74
     3
 42
0.000000001
 43
0.0000000001
 44
0.00000001
 40
0.0
 40
0.0
 40
0.0
 40
0.0
 40
0.0014519825910727
 40
0.0027325677108199
 40
0.0027325677108199
 40
0.0027325677108199
 40
0.0027325677108199
 10
-230.3828318710818
 20
102.028105928801
 30
0.0
 10
-230.3833035837922
 20
102.0279909228953
 30
0.0
 10
-230.3841913297393
 20
102.0277745065358
 30
0.0
 10
-230.3851041678897
 20
102.0277442049623
 30
0.0
 10
-230.3855319594453
 20
102.0277300138233
 30
0.0
 11
-230.3828318710818
 21
102.028105928801
 31
0.0
 11
-230.3842540960177
 21
102.0278134708165
 31
0.0
 11
-230.3855319594453
 21
102.0277300138233
 31
0.0
  0
SPLINE
  5
189
330
1F
100
AcDbEntity
  8
0
  6
Continuous
 62
     7
100
AcDbSpline
210
0.0
220
0.0
230
1.0
 70
     8
 71
     3
 72
     9
 73
     5
 74
     3
 42
0.000000001
 43
0.0000000001
 44
0.00000001
 40
0.0
 40
0.0
 40
0.0
 40
0.0
 40
0.5357417863047857
 40
1.074321477632257
 40
1.074321477632257
 40
1.074321477632257
 40
1.074321477632257
 10
-223.5727714770451
 20
93.02511665493525
 30
0.0
 10
-223.7516396747038
 20
93.03031014198032
 30
0.0
 10
-224.1103235601244
 20
93.04072464662414
 30
0.0
 10
-224.4619868151232
 20
93.1121309881568
 30
0.0
 10
-224.6382829143266
 20
93.1479284815638
 30
0.0
 11
-223.5727714770451
 21
93.02511665493525
 31
0.0
 11
-224.1076301723812
 21
93.05586463419799
 31
0.0
 11
-224.6382829143266
 21
93.1479284815638
 31
0.0
  0
SPLINE
  5
18A
330
1F
100
AcDbEntity
  8
0
  6
Continuous
 62
     7
100
AcDbSpline
210
0.0
220
0.0
230
1.0
 70
     8
 71
     3
 72
    11
 73
     7
 74
     5
 42
0.000000001
 43
0.0000000001
 44
0.00000001
 40
0.0
 40
0.0
 40
0.0
 40
0.0
 40
4.23441810052394
 40
9.00709292287497
 40
13.33227260716723
 40
18.01418917456841
 40
18.01418917456841
 40
18.01418917456841
 40
18.01418917456841
 10
-225.1764622677686
 20
129.0251166549348
 30
0.0
 10
-225.2445339007053
 20
127.6152814550933
 30
0.0
 10
-225.389330055154
 20
124.6164002977448
 30
0.0
 10
-225.5678698538665
 20
120.175858632166
 30
0.0
 10
-225.7366426409034
 20
115.5856985063537
 30
0.0
 10
-225.8345767075963
 20
112.5849269941935
 30
0.0
 10
-225.8854831315944
 20
111.0251166549357
 30
0.0
 11
-225.1764622677686
 21
129.0251166549348
 31
0.0
 11
-225.3753336781486
 21
124.7953711764779
 31
0.0
 11
-225.5709990588196
 21
120.0267088882248
 31
0.0
 11
-225.7294178536035
 21
115.7044313881974
 31
0.0
 11
-225.8854831315944
 21
111.0251166549357
 31
0.0
  0
SPLINE
  5
18B
330
1F
100
AcDbEntity
  8
0
  6
Continuous
 62
     7
100
AcDbSpline
210
0.0
220
0.0
230
1.0
 70
     8
 71
     3
 72
    20
 73
    16
 74
    14
 42
0.000000001
 43
0.0000000001
 44
0.00000001
 40
0.0
 40
0.0
 40
0.0
 40
0.0
 40
0.9961127683961776
 40
1.985023929190391
 40
2.571670457732952
 40
3.130902583834136
 40
3.654508303553385
 40
4.134275588365807
 40
4.556742380647179
 40
4.920158229563555
 40
5.223215957834888
 40
5.46461041875964
 40
5.652821389035377
 40
5.768769850584012
 40
5.820062898087144
 40
5.820062898087144
 40
5.820062898087144
 40
5.820062898087144
 10
-224.5631014232474
 20
102.0251172563022
 30
0.0
 10
-224.8951389319782
 20
102.0254557958311
 30
0.0
 10
-225.5568134141356
 20
102.0261304420244
 30
0.0
 10
-226.4140330317435
 20
102.0288704348146
 30
0.0
 10
-227.1256245064292
 20
102.0315556747116
 30
0.0
 10
-227.6821146062617
 20
102.0338576875923
 30
0.0
 10
-228.2029782203284
 20
102.0360431254564
 30
0.0
 10
-228.6782549583887
 20
102.037935792975
 30
0.0
 10
-229.100134315212
 20
102.0393214068628
 30
0.0
 10
-229.4631187062865
 20
102.0401527782169
 30
0.0
 10
-229.7657276719002
 20
102.0399991383316
 30
0.0
 10
-230.0099858548947
 20
102.0395750873124
 30
0.0
 10
-230.1917365889908
 20
102.0366075671588
 30
0.0
 10
-230.3103711416196
 20
102.0358287581931
 30
0.0
 10
-230.3658243469685
 20
102.0299185775842
 30
0.0
 10
-230.3828318710818
 20
102.028105928801
 30
0.0
 11
-224.5631014232474
 21
102.0251172563022
 31
0.0
 11
-225.5592132375496
 21
102.0264955727022
 31
0.0
 11
-226.5481200788542
 21
102.0294184378046
 31
0.0
 11
-227.1347624519542
 21
102.03162649785
 31
0.0
 11
-227.693989905749
 21
102.0339124944545
 31
0.0
 11
-228.217591118537
 21
102.0360849777952
 31
0.0
 11
-228.6973547686164
 21
102.0379524980491
 31
0.0
 11
-229.1198193772939
 21
102.039310801221
 31
0.0
 11
-229.4832345458192
 21
102.0400140222168
 31
0.0
 11
-229.7862922593637
 21
102.0399196059308
 31
0.0
 11
-230.0276845030989
 21
102.0388849972575
 31
0.0
 11
-230.2158815147367
 21
102.0365928100842
 31
0.0
 11
-230.3317749913785
 21
102.0330224041574
 31
0.0
 11
-230.3828318710818
 21
102.028105928801
 31
0.0
  0
SPLINE
  5
18C
330
1F
100
AcDbEntity
  8
0
  6
Continuous
 62
     7
100
AcDbSpline
210
0.0
220
0.0
230
1.0
 70
     8
 71
     3
 72
    10
 73
     6
 74
     4
 42
0.000000001
 43
0.0000000001
 44
0.00000001
 40
0.0
 40
0.0
 40
0.0
 40
0.0
 40
0.0213809641399431
 40
0.0719602873168473
 40
0.1522306622976779
 40
0.1522306622976779
 40
0.1522306622976779
 40
0.1522306622976779
 10
-230.361923525711
 20
105.0282319649542
 30
0.0
 10
-230.3560550014244
 20
105.0241436652974
 30
0.0
 10
-230.3363037699791
 20
105.0103839665033
 30
0.0
 10
-230.305346687377
 20
104.9693402658788
 30
0.0
 10
-230.2782347936102
 20
104.9353575061338
 30
0.0
 10
-230.2616028572918
 20
104.9145106330162
 30
0.0
 11
-230.361923525711
 21
105.0282319649542
 31
0.0
 11
-230.3447697473387
 21
105.0154689885236
 31
0.0
 11
-230.3113094374559
 21
104.9775391076037
 31
0.0
 11
-230.2616028572918
 21
104.9145106330162
 31
0.0
  0
SPLINE
  5
18D
330
1F
100
AcDbEntity
  8
0
  6
Continuous
 62
     7
100
AcDbSpline
210
0.0
220
0.0
230
1.0
 70
     8
 71
     3
 72
    20
 73
    16
 74
    14
 42
0.000000001
 43
0.0000000001
 44
0.00000001
 40
0.0
 40
0.0
 40
0.0
 40
0.0
 40
0.0512991303936825
 40
0.1672647554004559
 40
0.3555068935998306
 40
0.5970345301726634
 40
0.9002745071995311
 40
1.263916772904847
 40
1.686649243217848
 40
2.166680733482176
 40
2.690564618646246
 40
3.250078656714308
 40
3.837000630655076
 40
4.824963686762358
 40
5.820062892074703
 40
5.820062892074703
 40
5.820062892074703
 40
5.820062892074703
 10
-229.5394395957112
 20
94.528105928801
 30
0.0
 10
-229.5224300446947
 20
94.5299186946094
 30
0.0
 10
-229.4669690989314
 20
94.53582937738697
 30
0.0
 10
-229.348316390677
 20
94.53660794866464
 30
0.0
 10
-229.1665051727738
 20
94.539575996228
 30
0.0
 10
-228.9221314348939
 20
94.53999947403743
 30
0.0
 10
-228.619341865747
 20
94.540152430556
 30
0.0
 10
-228.2561326919316
 20
94.53931973020408
 30
0.0
 10
-227.8340012399592
 20
94.53793262284006
 30
0.0
 10
-227.3584551557452
 20
94.53603845494175
 30
0.0
 10
-226.8373167836814
 20
94.53385176482315
 30
0.0
 10
-226.2805481772963
 20
94.53154890605143
 30
0.0
 10
-225.5690869469681
 20
94.52886513517376
 30
0.0
 10
-224.712429395643
 20
94.52612877615746
 30
0.0
 10
-224.0514088024136
 20
94.52545523260355
 30
0.0
 10
-223.7197091478768
 20
94.52511725630224
 30
0.0
 11
-229.5394395957112
 21
94.528105928801
 31
0.0
 11
-229.4883766352288
 21
94.53302271827484
 31
0.0
 11
-229.372465991179
 21
94.5365932602889
 31
0.0
 11
-229.1842378087186
 21
94.53888539920958
 31
0.0
 11
-228.9427123879809
 21
94.53991997709049
 31
0.0
 11
-228.6394724254438
 21
94.54001365745792
 31
0.0
 11
-228.2758308420963
 21
94.53930920145594
 31
0.0
 11
-227.8531005589275
 21
94.53794937022862
 31
0.0
 11
-227.373072707101
 21
94.53608038402875
 31
0.0
 11
-226.8491933316862
 21
94.53390664446023
 31
0.0
 11
-226.2896839670044
 21
94.5316198074892
 31
0.0
 11
-225.7027661473776
 21
94.52941152908183
 31
0.0
 11
-224.7148074013299
 21
94.52649325616078
 31
0.0
 11
-223.7197091478768
 21
94.52511725630224
 31
0.0
  0
SPLINE
  5
18E
330
1F
100
AcDbEntity
  8
0
  6
Continuous
 62
     7
100
AcDbSpline
210
0.0
220
0.0
230
1.0
 70
     8
 71
     3
 72
    20
 73
    16
 74
    14
 42
0.000000001
 43
0.0000000001
 44
0.00000001
 40
0.0
 40
0.0
 40
0.0
 40
0.0
 40
0.0512991304030836
 40
0.1672647554170665
 40
0.3555068935996998
 40
0.5970345301738967
 40
0.9002745072009917
 40
1.263916772905711
 40
1.68664924321783
 40
2.166680733476389
 40
2.690564618639976
 40
3.250078656710566
 40
3.837000630655029
 40
4.824963686793206
 40
5.820062892074598
 40
5.820062892074598
 40
5.820062892074598
 40
5.820062892074598
 10
-229.4870744009264
 20
97.528105928801
 30
0.0
 10
-229.4700648499067
 20
97.52991869460956
 30
0.0
 10
-229.4146039041379
 20
97.53582937738719
 30
0.0
 10
-229.2959511958835
 20
97.53660794866468
 30
0.0
 10
-229.1141399779831
 20
97.53957599622805
 30
0.0
 10
-228.8697662401083
 20
97.53999947403744
 30
0.0
 10
-228.5669766709609
 20
97.54015243055593
 30
0.0
 10
-228.203767497146
 20
97.53931973020411
 30
0.0
 10
-227.781636045176
 20
97.53793262284009
 30
0.0
 10
-227.3060899609643
 20
97.53603845494172
 30
0.0
 10
-226.7849515889019
 20
97.53385176482314
 30
0.0
 10
-226.2281829825147
 20
97.53154890605143
 30
0.0
 10
-225.5167217521743
 20
97.52886513517375
 30
0.0
 10
-224.660064200848
 20
97.5261287761573
 30
0.0
 10
-223.9990436076185
 20
97.5254552326035
 30
0.0
 10
-223.6673439530921
 20
97.52511725630224
 30
0.0
 11
-229.4870744009264
 21
97.528105928801
 31
0.0
 11
-229.4360114404346
 21
97.53302271827522
 31
0.0
 11
-229.3201007963775
 21
97.53659326028908
 31
0.0
 11
-229.1318726139339
 21
97.53888539920958
 31
0.0
 11
-228.8903471931949
 21
97.53991997709049
 31
0.0
 11
-228.5871072306575
 21
97.54001365745789
 31
0.0
 11
-228.2234656473106
 21
97.53930920145595
 31
0.0
 11
-227.8007353641427
 21
97.53794937022862
 31
0.0
 11
-227.320707512322
 21
97.53608038402875
 31
0.0
 11
-226.7968281369076
 21
97.53390664446023
 31
0.0
 11
-226.2373187722233
 21
97.53161980748922
 31
0.0
 11
-225.6504009525928
 21
97.52941152908183
 31
0.0
 11
-224.6624422065142
 21
97.52649325616063
 31
0.0
 11
-223.6673439530921
 21
97.52511725630224
 31
0.0
  0
SPLINE
  5
18F
330
1F
100
AcDbEntity
  8
0
  6
Continuous
 62
     7
100
AcDbSpline
210
0.0
220
0.0
230
1.0
 70
     8
 71
     3
 72
    11
 73
     7
 74
     5
 42
0.000000001
 43
0.0000000001
 44
0.00000001
 40
0.0
 40
0.0
 40
0.0
 40
0.0
 40
0.5646794043342014
 40
1.070060581168395
 40
1.643167483631541
 40
2.140121157583131
 40
2.140121157583131
 40
2.140121157583131
 40
2.140121157583131
 10
-171.346980828343
 20
91.42488672527465
 30
0.0
 10
-171.212718828392
 20
91.29296660290477
 30
0.0
 10
-170.9582939665295
 20
91.04297959102269
 30
0.0
 10
-170.5675815253967
 20
90.6591258175511
 30
0.0
 10
-170.1929543284612
 20
90.29111209506084
 30
0.0
 10
-169.9384693176428
 20
90.0411863165727
 30
0.0
 10
-169.8202823015481
 20
89.92511669304135
 30
0.0
 11
-171.346980828343
 21
91.42488672527465
 31
0.0
 11
-170.9441908722985
 21
91.02913038484759
 31
0.0
 11
-170.5836825651723
 21
90.67494978911704
 31
0.0
 11
-170.1748361568306
 21
90.27333288703439
 31
0.0
 11
-169.8202823015481
 21
89.92511669304135
 31
0.0
  0
SPLINE
  5
190
330
1F
100
AcDbEntity
  8
0
  6
Continuous
 62
     7
100
AcDbSpline
210
0.0
220
0.0
230
1.0
 70
     8
 71
     3
 72
    17
 73
    13
 74
    11
 42
0.000000001
 43
0.0000000001
 44
0.00000001
 40
0.0
 40
0.0
 40
0.0
 40
0.0
 40
0.598623796863824
 40
1.124986025067095
 40
1.940011732158978
 40
2.581637198619199
 40
3.302656726039514
 40
3.845385820849804
 40
4.853359975035579
 40
5.591855251835463
 40
5.806428121689549
 40
5.972678537802529
 40
5.972678537802529
 40
5.972678537802529
 40
5.972678537802529
 10
-177.6926214187268
 20
93.1479284815638
 30
0.0
 10
-177.4979731805065
 20
93.19189001630757
 30
0.0
 10
-177.1321732442924
 20
93.27450637307503
 30
0.0
 10
-176.4976042177421
 20
93.39934771145798
 30
0.0
 10
-175.8456081698488
 20
93.50912865818114
 30
0.0
 10
-175.1255678541246
 20
93.60219088176532
 30
0.0
 10
-174.4925066907234
 20
93.65701157062114
 30
0.0
 10
-173.7353589222539
 20
93.68225271084174
 30
0.0
 10
-172.9719118411831
 20
93.6464388514211
 30
0.0
 10
-172.3268321311465
 20
93.48767790991107
 30
0.0
 10
-172.0030880389139
 20
93.29372830379148
 30
0.0
 10
-171.9164362128031
 20
93.20028258469908
 30
0.0
 10
-171.8786078987571
 20
93.15948836431166
 30
0.0
 11
-177.6926214187268
 21
93.1479284815638
 31
0.0
 11
-177.1080600488511
 21
93.27691858025305
 31
0.0
 11
-176.5916746256951
 21
93.37891510138765
 31
0.0
 11
-175.7877492215472
 21
93.51297049248917
 31
0.0
 11
-175.1513348756054
 21
93.59457943454949
 31
0.0
 11
-174.4328409943864
 21
93.65487621210316
 31
0.0
 11
-173.8903821412332
 21
93.67200112983359
 31
0.0
 11
-172.8846890572795
 21
93.60422712959577
 31
0.0
 11
-172.1772149251039
 21
93.39243566647441
 31
0.0
 11
-171.9965705192226
 21
93.27663794365436
 31
0.0
 11
-171.8786078987571
 21
93.15948836431166
 31
0.0
  0
SPLINE
  5
191
330
1F
100
AcDbEntity
  8
0
  6
Continuous
 62
     7
100
AcDbSpline
210
0.0
220
0.0
230
1.0
 70
     8
 71
     3
 72
    20
 73
    16
 74
    14
 42
0.000000001
 43
0.0000000001
 44
0.00000001
 40
0.0
 40
0.0
 40
0.0
 40
0.0
 40
0.051299130395143
 40
0.1672647554030781
 40
0.3555068935998091
 40
0.5970345301683216
 40
0.9002745071916365
 40
1.263916772897151
 40
1.686649243217144
 40
2.166680733476584
 40
2.690564618639091
 40
3.250078656708715
 40
3.837000630654571
 40
4.824963686744516
 40
5.820062892074624
 40
5.820062892074624
 40
5.820062892074624
 40
5.820062892074624
 10
-229.4347092061419
 20
100.528105928801
 30
0.0
 10
-229.417699655125
 20
100.5299186946095
 30
0.0
 10
-229.3622387093607
 20
100.5358293773872
 30
0.0
 10
-229.2435860011064
 20
100.5366079486646
 30
0.0
 10
-229.0617747832051
 20
100.5395759962281
 30
0.0
 10
-228.8174010453287
 20
100.5399994740374
 30
0.0
 10
-228.5146114761843
 20
100.540152430556
 30
0.0
 10
-228.1514023023678
 20
100.5393197302041
 30
0.0
 10
-227.7292708503945
 20
100.5379326228401
 30
0.0
 10
-227.2537247661804
 20
100.5360384549417
 30
0.0
 10
-226.7325863941183
 20
100.5338517648231
 30
0.0
 10
-226.1758177877313
 20
100.5315489060514
 30
0.0
 10
-225.4643565574069
 20
100.5288651351738
 30
0.0
 10
-224.6076990060798
 20
100.5261287761574
 30
0.0
 10
-223.9466784128503
 20
100.5254552326036
 30
0.0
 10
-223.6149787583076
 20
100.5251172563022
 30
0.0
 11
-229.4347092061419
 21
100.528105928801
 31
0.0
 11
-229.383646245658
 21
100.533022718275
 31
0.0
 11
-229.267735601607
 21
100.536593260289
 31
0.0
 11
-229.0795074191493
 21
100.5388853992096
 31
0.0
 11
-228.837981998416
 21
100.5399199770905
 31
0.0
 11
-228.5347420358824
 21
100.5400136574579
 31
0.0
 11
-228.1711004525347
 21
100.5393092014559
 31
0.0
 11
-227.7483701693589
 21
100.5379493702286
 31
0.0
 11
-227.2683423175373
 21
100.5360803840287
 31
0.0
 11
-226.744462942124
 21
100.5339066444602
 31
0.0
 11
-226.1849535774407
 21
100.5316198074892
 31
0.0
 11
-225.5980357578088
 21
100.5294115290818
 31
0.0
 11
-224.6100770117785
 21
100.5264932561608
 31
0.0
 11
-223.6149787583076
 21
100.5251172563022
 31
0.0
  0
SPLINE
  5
192
330
1F
100
AcDbEntity
  8
0
  6
Continuous
 62
     7
100
AcDbSpline
210
0.0
220
0.0
230
1.0
 70
     8
 71
     3
 72
     9
 73
     5
 74
     3
 42
0.000000001
 43
0.0000000001
 44
0.00000001
 40
0.0
 40
0.0
 40
0.0
 40
0.0
 40
0.0014519825911466
 40
0.0027325677109539
 40
0.0027325677109539
 40
0.0027325677109539
 40
0.0027325677109539
 10
-229.4347092061419
 20
100.528105928801
 30
0.0
 10
-229.4351809188523
 20
100.527990922895
 30
0.0
 10
-229.4360686647993
 20
100.5277745065347
 30
0.0
 10
-229.4369815029497
 20
100.5277442049617
 30
0.0
 10
-229.4374092945054
 20
100.5277300138229
 30
0.0
 11
-229.4347092061419
 21
100.528105928801
 31
0.0
 11
-229.4361314310777
 21
100.5278134708158
 31
0.0
 11
-229.4374092945054
 21
100.5277300138229
 31
0.0
  0
SPLINE
  5
193
330
1F
100
AcDbEntity
  8
0
  6
Continuous
 62
     7
100
AcDbSpline
210
0.0
220
0.0
230
1.0
 70
     8
 71
     3
 72
    20
 73
    16
 74
    14
 42
0.000000001
 43
0.0000000001
 44
0.00000001
 40
0.0
 40
0.0
 40
0.0
 40
0.0
 40
0.0512991303917748
 40
0.1672647553972103
 40
0.3555068935998275
 40
0.5970345301655549
 40
0.9002745071867098
 40
1.263916772892679
 40
1.686649243217845
 40
2.166680733474129
 40
2.69056461863999
 40
3.250078656712883
 40
3.837000630655157
 40
4.824963686840201
 40
5.820062892074527
 40
5.820062892074527
 40
5.820062892074527
 40
5.820062892074527
 10
-172.843829932127
 20
97.528105928801
 30
0.0
 10
-172.8608394831428
 20
97.52991869460938
 30
0.0
 10
-172.9163004289051
 20
97.53582937738683
 30
0.0
 10
-173.0349531371595
 20
97.53660794866435
 30
0.0
 10
-173.2167643550609
 20
97.53957599622805
 30
0.0
 10
-173.4611380929376
 20
97.53999947403744
 30
0.0
 10
-173.7639276620805
 20
97.54015243055596
 30
0.0
 10
-174.1271368358983
 20
97.53931973020407
 30
0.0
 10
-174.5492682878723
 20
97.5379326228401
 30
0.0
 10
-175.0248143720882
 20
97.53603845494176
 30
0.0
 10
-175.5459527441515
 20
97.53385176482314
 30
0.0
 10
-176.1027213505394
 20
97.53154890605148
 30
0.0
 10
-176.8141825808955
 20
97.52886513517366
 30
0.0
 10
-177.6708401322211
 20
97.52612877615742
 30
0.0
 10
-178.3318607254504
 20
97.52545523260358
 30
0.0
 10
-178.6635603799612
 20
97.52511725630224
 30
0.0
 11
-172.843829932127
 21
97.528105928801
 31
0.0
 11
-172.8948928926075
 21
97.53302271827471
 31
0.0
 11
-173.010803536656
 21
97.53659326028868
 31
0.0
 11
-173.1990317191196
 21
97.53888539920958
 31
0.0
 11
-173.4405571398502
 21
97.53991997709049
 31
0.0
 11
-173.7437971023816
 21
97.5400136574579
 31
0.0
 11
-174.1074386857297
 21
97.53930920145592
 31
0.0
 11
-174.5301689689107
 21
97.53794937022862
 31
0.0
 11
-175.0101968207291
 21
97.53608038402876
 31
0.0
 11
-175.5340761961458
 21
97.53390664446023
 31
0.0
 11
-176.0935855608324
 21
97.53161980748922
 31
0.0
 11
-176.6805033804607
 21
97.52941152908183
 31
0.0
 11
-177.6684621265861
 21
97.52649325616063
 31
0.0
 11
-178.6635603799612
 21
97.52511725630224
 31
0.0
  0
SPLINE
  5
194
330
1F
100
AcDbEntity
  8
0
  6
Continuous
 62
     7
100
AcDbSpline
210
0.0
220
0.0
230
1.0
 70
     8
 71
     3
 72
     9
 73
     5
 74
     3
 42
0.000000001
 43
0.0000000001
 44
0.00000001
 40
0.0
 40
0.0
 40
0.0
 40
0.0
 40
0.0014519825912621
 40
0.0027325677109732
 40
0.0027325677109732
 40
0.0027325677109732
 40
0.0027325677109732
 10
-172.843829932127
 20
97.528105928801
 30
0.0
 10
-172.8433582194165
 20
97.527990922895
 30
0.0
 10
-172.8424704734695
 20
97.527774506535
 30
0.0
 10
-172.841557635319
 20
97.52774420496205
 30
0.0
 10
-172.8411298437634
 20
97.52773001382333
 30
0.0
 11
-172.843829932127
 21
97.528105928801
 31
0.0
 11
-172.842407707191
 21
97.52781347081601
 31
0.0
 11
-172.8411298437634
 21
97.52773001382333
 31
0.0
  0
SPLINE
  5
195
330
1F
100
AcDbEntity
  8
0
  6
Continuous
 62
     7
100
AcDbSpline
210
0.0
220
0.0
230
1.0
 70
     8
 71
     3
 72
    20
 73
    16
 74
    14
 42
0.000000001
 43
0.0000000001
 44
0.00000001
 40
0.0
 40
0.0
 40
0.0
 40
0.0
 40
0.9961127683734968
 40
1.985023929190192
 40
2.571670457734032
 40
3.130902583836552
 40
3.654508303555943
 40
4.13427558836578
 40
4.556742380671566
 40
4.920158229589306
 40
5.223215957849042
 40
5.464610418759442
 40
5.652821389008799
 40
5.768769850568734
 40
5.8200628980869
 40
5.8200628980869
 40
5.8200628980869
 40
5.8200628980869
 10
-177.7154377150213
 20
99.02511725630224
 30
0.0
 10
-177.3834002062981
 20
99.02545579583101
 30
0.0
 10
-176.7217257241406
 20
99.02613044202415
 30
0.0
 10
-175.8645061065324
 20
99.02887043481468
 30
0.0
 10
-175.1529146318384
 20
99.03155567471134
 30
0.0
 10
-174.5964245320048
 20
99.03385768759213
 30
0.0
 10
-174.0755609179386
 20
99.03604312545635
 30
0.0
 10
-173.600284179871
 20
99.03793579297499
 30
0.0
 10
-173.17840482304
 20
99.03932140686285
 30
0.0
 10
-172.8154204319607
 20
99.04015277821682
 30
0.0
 10
-172.5128114663552
 20
99.03999913833167
 30
0.0
 10
-172.2685532833782
 20
99.03957508731222
 30
0.0
 10
-172.0868025492919
 20
99.03660756715931
 30
0.0
 10
-171.9681679966633
 20
99.03582875819352
 30
0.0
 10
-171.9127147913053
 20
99.0299185775845
 30
0.0
 10
-171.8957072671871
 20
99.028105928801
 30
0.0
 11
-177.7154377150213
 21
99.02511725630224
 31
0.0
 11
-176.7193259007418
 21
99.02649557270202
 31
0.0
 11
-175.7304190594147
 21
99.02941843780458
 31
0.0
 11
-175.1437766863134
 21
99.03162649784979
 31
0.0
 11
-174.5845492325172
 21
99.0339124944543
 31
0.0
 11
-174.0609480197292
 21
99.0360849777951
 31
0.0
 11
-173.5811843696523
 21
99.03795249804911
 31
0.0
 11
-173.1587197609504
 21
99.03931080122103
 31
0.0
 11
-172.7953045924237
 21
99.0400140222168
 31
0.0
 11
-172.4922468788908
 21
99.03991960593082
 31
0.0
 11
-172.25085463517
 21
99.03888499725748
 31
0.0
 11
-172.0626576235586
 21
99.03659281008476
 31
0.0
 11
-171.9467641469055
 21
99.03302240415809
 31
0.0
 11
-171.8957072671871
 21
99.028105928801
 31
0.0
  0
SPLINE
  5
196
330
1F
100
AcDbEntity
  8
0
  6
Continuous
 62
     7
100
AcDbSpline
210
0.0
220
0.0
230
1.0
 70
     8
 71
     3
 72
    13
 73
     9
 74
     7
 42
0.000000001
 43
0.0000000001
 44
0.00000001
 40
0.0
 40
0.0
 40
0.0
 40
0.0
 40
0.6963946125821522
 40
1.392714035857069
 40
2.088991390364162
 40
2.785268744871281
 40
3.481588168146168
 40
4.177982780728479
 40
4.177982780728479
 40
4.177982780728479
 40
4.177982780728479
 10
-220.2430150035119
 20
153.0251166549348
 30
0.0
 10
-220.4756788634455
 20
153.0094244392066
 30
0.0
 10
-220.9409814610279
 20
152.9780416876486
 30
0.0
 10
-221.601093374316
 20
152.7284957775277
 30
0.0
 10
-222.1887727841131
 20
152.3450085053579
 30
0.0
 10
-222.6684834814911
 20
151.8328491322748
 30
0.0
 10
-223.0288654593097
 20
151.2260989947496
 30
0.0
 10
-223.1405703844885
 20
150.773314946772
 30
0.0
 10
-223.1964258554861
 20
150.5469106983284
 30
0.0
 11
-220.2430150035119
 21
153.0251166549348
 31
0.0
 11
-220.9347031020897
 21
152.9442894758786
 31
0.0
 11
-221.5890399136896
 21
152.7061632922577
 31
0.0
 11
-222.1707783675429
 21
152.3235635947636
 31
0.0
 11
-222.6485833383256
 21
151.8171007954294
 31
0.0
 11
-222.9967162450655
 21
151.2140550081252
 31
0.0
 11
-223.1964258554861
 21
150.5469106983284
 31
0.0
  0
SPLINE
  5
197
330
1F
100
AcDbEntity
  8
0
  6
Continuous
 62
     7
100
AcDbSpline
210
0.0
220
0.0
230
1.0
 70
     8
 71
     3
 72
    11
 73
     7
 74
     5
 42
0.000000001
 43
0.0000000001
 44
0.00000001
 40
0.0
 40
0.0
 40
0.0
 40
0.0
 40
0.8179297065599518
 40
1.504442698088827
 40
2.068366604073092
 40
2.539738733116286
 40
2.539738733116286
 40
2.539738733116286
 40
2.539738733116286
 10
-222.4910517573986
 20
144.0251166549348
 30
0.0
 10
-222.3302675669171
 20
144.2462737127026
 30
0.0
 10
-222.0345323642359
 20
144.6530545311266
 30
0.0
 10
-221.5355076120926
 20
145.1291124752879
 30
0.0
 10
-221.0455486430914
 20
145.4552055440126
 30
0.0
 10
-220.6999970203638
 20
145.5032444584369
 30
0.0
 10
-220.5426667494525
 20
145.5251166549348
 30
0.0
 11
-222.4910517573986
 21
144.0251166549348
 31
0.0
 11
-221.988825795259
 21
144.6707001716196
 31
0.0
 11
-221.4896127369684
 21
145.141960624742
 31
0.0
 11
-221.0040962269507
 21
145.4288123242171
 31
0.0
 11
-220.5426667494525
 21
145.5251166549348
 31
0.0
  0
SPLINE
  5
198
330
1F
100
AcDbEntity
  8
0
  6
Continuous
 62
     7
100
AcDbSpline
210
0.0
220
0.0
230
1.0
 70
     8
 71
     3
 72
    11
 73
     7
 74
     5
 42
0.000000001
 43
0.0000000001
 44
0.00000001
 40
0.0
 40
0.0
 40
0.0
 40
0.0
 40
4.231231985830888
 40
9.007092926279846
 40
13.3322703090273
 40
18.01418917797447
 40
18.01418917797447
 40
18.01418917797447
 40
18.01418917797447
 10
-177.1544420652849
 20
129.0251166549348
 30
0.0
 10
-177.0864196069938
 20
127.6163423658089
 30
0.0
 10
-176.941619099959
 20
124.6174614299762
 30
0.0
 10
-176.763073418431
 20
120.176920721687
 30
0.0
 10
-176.5942617487695
 20
115.5856992731812
 30
0.0
 10
-176.4963276612942
 20
112.5849277609855
 30
0.0
 10
-176.445421201469
 20
111.0251166549348
 30
0.0
 11
-177.1544420652849
 21
129.0251166549348
 31
0.0
 11
-176.955710219507
 21
124.7985542489433
 31
0.0
 11
-176.7599052742338
 21
120.0267088882248
 31
0.0
 11
-176.601486559804
 21
115.7044336883424
 31
0.0
 11
-176.445421201469
 21
111.0251166549348
 31
0.0
  0
SPLINE
  5
199
330
1F
100
AcDbEntity
  8
0
  6
Continuous
 62
     7
100
AcDbSpline
210
0.0
220
0.0
230
1.0
 70
     8
 71
     3
 72
    11
 73
     7
 74
     5
 42
0.000000001
 43
0.0000000001
 44
0.00000001
 40
0.0
 40
0.0
 40
0.0
 40
0.0
 40
0.6514292686044366
 40
1.345520173266729
 40
2.113999131882211
 40
2.975337280851387
 40
2.975337280851387
 40
2.975337280851387
 40
2.975337280851387
 10
-178.8986245686254
 20
109.5251166549348
 30
0.0
 10
-178.6807467225883
 20
109.5446511854175
 30
0.0
 10
-178.2307223688425
 20
109.5849995634034
 30
0.0
 10
-177.5863081437657
 20
109.9003125787486
 30
0.0
 10
-176.9709849340671
 20
110.3787469490953
 30
0.0
 10
-176.6271393349885
 20
110.8016288201756
 30
0.0
 10
-176.445421201469
 20
111.0251166549348
 30
0.0
 11
-178.8986245686254
 21
109.5251166549348
 31
0.0
 11
-178.2543357730561
 21
109.6213041950517
 31
0.0
 11
-177.6221769924176
 21
109.9079005390328
 31
0.0
 11
-177.015069181771
 21
110.379048095054
 31
0.0
 11
-176.445421201469
 21
111.0251166549348
 31
0.0
  0
SPLINE
  5
19A
330
1F
100
AcDbEntity
  8
0
  6
Continuous
 62
     7
100
AcDbSpline
210
0.0
220
0.0
230
1.0
 70
     8
 71
     3
 72
     9
 73
     5
 74
     3
 42
0.000000001
 43
0.0000000001
 44
0.00000001
 40
0.0
 40
0.0
 40
0.0
 40
0.0
 40
0.0014519825911352
 40
0.0027325677108068
 40
0.0027325677108068
 40
0.0027325677108068
 40
0.0027325677108068
 10
-172.8961951269115
 20
100.528105928801
 30
0.0
 10
-172.8957234142011
 20
100.5279909228949
 30
0.0
 10
-172.8948356682542
 20
100.5277745065347
 30
0.0
 10
-172.8939228301037
 20
100.527744204962
 30
0.0
 10
-172.8934950385481
 20
100.5277300138233
 30
0.0
 11
-172.8961951269115
 21
100.528105928801
 31
0.0
 11
-172.8947729019757
 21
100.5278134708158
 31
0.0
 11
-172.8934950385481
 21
100.5277300138233
 31
0.0
  0
SPLINE
  5
19B
330
1F
100
AcDbEntity
  8
0
  6
Continuous
 62
     7
100
AcDbSpline
210
0.0
220
0.0
230
1.0
 70
     8
 71
     3
 72
    20
 73
    16
 74
    14
 42
0.000000001
 43
0.0000000001
 44
0.00000001
 40
0.0
 40
0.0
 40
0.0
 40
0.0
 40
0.9961127684688236
 40
1.985023929190192
 40
2.571670457739261
 40
3.130902583842264
 40
3.654508303559211
 40
4.134275588365694
 40
4.556742380671707
 40
4.920158229589987
 40
5.223215957849894
 40
5.464610418759526
 40
5.65282138905411
 40
5.768769850594623
 40
5.820062898087042
 40
5.820062898087042
 40
5.820062898087042
 40
5.820062898087042
 10
-177.6630725202366
 20
96.02511725630224
 30
0.0
 10
-177.3310350114816
 20
96.02545579583112
 30
0.0
 10
-176.6693605293241
 20
96.02613044202447
 30
0.0
 10
-175.8121409117142
 20
96.02887043481476
 30
0.0
 10
-175.10054943705
 20
96.03155567471134
 30
0.0
 10
-174.5440593372155
 20
96.03385768759216
 30
0.0
 10
-174.0231957231509
 20
96.0360431254563
 30
0.0
 10
-173.5479189850851
 20
96.03793579297503
 30
0.0
 10
-173.126039628255
 20
96.03932140686275
 30
0.0
 10
-172.7630552371755
 20
96.04015277821686
 30
0.0
 10
-172.4604462715699
 20
96.03999913833161
 30
0.0
 10
-172.2161880885781
 20
96.03957508731234
 30
0.0
 10
-172.0344373544835
 20
96.03660756715848
 30
0.0
 10
-171.9158028018547
 20
96.03582875819282
 30
0.0
 10
-171.860349596512
 20
96.02991857758401
 30
0.0
 10
-171.8433420724023
 20
96.028105928801
 30
0.0
 11
-177.6630725202366
 21
96.02511725630224
 31
0.0
 11
-176.6669607058618
 21
96.02649557270236
 31
0.0
 11
-175.67805386463
 21
96.02941843780458
 31
0.0
 11
-175.0914114915235
 21
96.03162649784979
 31
0.0
 11
-174.5321840377268
 21
96.0339124944543
 31
0.0
 11
-174.0085828249412
 21
96.03608497779507
 31
0.0
 11
-173.5288191748677
 21
96.03795249804911
 31
0.0
 11
-173.1063545661655
 21
96.03931080122102
 31
0.0
 11
-172.7429393976384
 21
96.0400140222168
 31
0.0
 11
-172.4398816841052
 21
96.03991960593083
 31
0.0
 11
-172.1984894403852
 21
96.03888499725748
 31
0.0
 11
-172.0102924287286
 21
96.03659281008385
 31
0.0
 11
-171.8943989520949
 21
96.03302240415688
 31
0.0
 11
-171.8433420724023
 21
96.028105928801
 31
0.0
  0
SPLINE
  5
19C
330
1F
100
AcDbEntity
  8
0
  6
Continuous
 62
     7
100
AcDbSpline
210
0.0
220
0.0
230
1.0
 70
     8
 71
     3
 72
     9
 73
     5
 74
     3
 42
0.000000001
 43
0.0000000001
 44
0.00000001
 40
0.0
 40
0.0
 40
0.0
 40
0.0
 40
0.001451982591213
 40
0.002732567710998
 40
0.002732567710998
 40
0.002732567710998
 40
0.002732567710998
 10
-171.8433420724023
 20
96.028105928801
 30
0.0
 10
-171.8428703596919
 20
96.02799092289494
 30
0.0
 10
-171.8419826137448
 20
96.02777450653473
 30
0.0
 10
-171.8410697755943
 20
96.02774420496196
 30
0.0
 10
-171.8406419840387
 20
96.02773001382333
 30
0.0
 11
-171.8433420724023
 21
96.028105928801
 31
0.0
 11
-171.8419198474664
 21
96.02781347081584
 31
0.0
 11
-171.8406419840387
 21
96.02773001382333
 31
0.0
  0
SPLINE
  5
19D
330
1F
100
AcDbEntity
  8
0
  6
Continuous
 62
     7
100
AcDbSpline
210
0.0
220
0.0
230
1.0
 70
     8
 71
     3
 72
    20
 73
    16
 74
    14
 42
0.000000001
 43
0.0000000001
 44
0.00000001
 40
0.0
 40
0.0
 40
0.0
 40
0.0
 40
0.0512991304113557
 40
0.1672647554314683
 40
0.355506893600003
 40
0.597034530182158
 40
0.90027450721525
 40
1.263916772919003
 40
1.686649243217821
 40
2.166680733482206
 40
2.690564618646476
 40
3.250078656714479
 40
3.837000630654935
 40
4.824963686800416
 40
5.820062892074589
 40
5.820062892074589
 40
5.820062892074589
 40
5.820062892074589
 10
-172.7914647373423
 20
94.528105928801
 30
0.0
 10
-172.8084742883647
 20
94.52991869460975
 30
0.0
 10
-172.8639352341384
 20
94.53582937738742
 30
0.0
 10
-172.9825879423928
 20
94.53660794866475
 30
0.0
 10
-173.1643991602933
 20
94.53957599622817
 30
0.0
 10
-173.4087728981681
 20
94.53999947403742
 30
0.0
 10
-173.7115624673197
 20
94.54015243055599
 30
0.0
 10
-174.0747716411319
 20
94.53931973020413
 30
0.0
 10
-174.4969030930991
 20
94.53793262284006
 30
0.0
 10
-174.9724491773084
 20
94.53603845494176
 30
0.0
 10
-175.4935875493721
 20
94.53385176482314
 30
0.0
 10
-176.0503561557574
 20
94.53154890605148
 30
0.0
 10
-176.761817386098
 20
94.52886513517369
 30
0.0
 10
-177.6184749374232
 20
94.52612877615732
 30
0.0
 10
-178.2794955306525
 20
94.52545523260353
 30
0.0
 10
-178.6111951851766
 20
94.52511725630224
 30
0.0
 11
-172.7914647373423
 21
94.528105928801
 31
0.0
 11
-172.8425276978424
 21
94.53302271827563
 31
0.0
 11
-172.9584383419056
 21
94.53659326028928
 31
0.0
 11
-173.1466665243351
 21
94.53888539920958
 31
0.0
 11
-173.3881919450821
 21
94.5399199770905
 31
0.0
 11
-173.6914319076255
 21
94.54001365745792
 31
0.0
 11
-174.0550734909714
 21
94.53930920145595
 31
0.0
 11
-174.477803774126
 21
94.53794937022862
 31
0.0
 11
-174.9578316259525
 21
94.53608038402875
 31
0.0
 11
-175.4817110013676
 21
94.53390664446023
 31
0.0
 11
-176.0412203660493
 21
94.53161980748922
 31
0.0
 11
-176.6281381856758
 21
94.52941152908183
 31
0.0
 11
-177.6160969317617
 21
94.52649325616063
 31
0.0
 11
-178.6111951851766
 21
94.52511725630224
 31
0.0
  0
SPLINE
  5
19E
330
1F
100
AcDbEntity
  8
0
  6
Continuous
 62
     7
100
AcDbSpline
210
0.0
220
0.0
230
1.0
 70
     8
 71
     3
 72
     9
 73
     5
 74
     3
 42
0.000000001
 43
0.0000000001
 44
0.00000001
 40
0.0
 40
0.0
 40
0.0
 40
0.0
 40
0.0014519825911786
 40
0.0027325677109748
 40
0.0027325677109748
 40
0.0027325677109748
 40
0.0027325677109748
 10
-172.7914647373423
 20
94.528105928801
 30
0.0
 10
-172.7909930246319
 20
94.52799092289503
 30
0.0
 10
-172.7901052786848
 20
94.52777450653497
 30
0.0
 10
-172.7891924405344
 20
94.52774420496205
 30
0.0
 10
-172.7887646489787
 20
94.52773001382333
 30
0.0
 11
-172.7914647373423
 21
94.528105928801
 31
0.0
 11
-172.7900425124064
 21
94.52781347081601
 31
0.0
 11
-172.7887646489787
 21
94.52773001382333
 31
0.0
  0
SPLINE
  5
19F
330
1F
100
AcDbEntity
  8
0
  6
Continuous
 62
     7
100
AcDbSpline
210
0.0
220
0.0
230
1.0
 70
     8
 71
     3
 72
    10
 73
     6
 74
     4
 42
0.000000001
 43
0.0000000001
 44
0.00000001
 40
0.0
 40
0.0
 40
0.0
 40
0.0
 40
0.0942454974006533
 40
0.1533631992614401
 40
0.1778420264983332
 40
0.1778420264983332
 40
0.1778420264983332
 40
0.1778420264983332
 10
-171.8786078987571
 20
93.15948836431166
 30
0.0
 10
-171.8586420711881
 20
93.13535838613133
 30
0.0
 10
-171.8261522337784
 20
93.09609228918299
 30
0.0
 10
-171.7892567883784
 20
93.0487721904554
 30
0.0
 10
-171.766255341491
 20
93.03288427584418
 30
0.0
 10
-171.7595200282039
 20
93.02823196495423
 30
0.0
 11
-171.8786078987571
 21
93.15948836431166
 31
0.0
 11
-171.8189645227574
 21
93.08651658165068
 31
0.0
 11
-171.7792407952578
 21
93.0427338402479
 31
0.0
 11
-171.7595200282039
 21
93.02823196495423
 31
0.0
  0
SPLINE
  5
1A0
330
1F
100
AcDbEntity
  8
0
  6
Continuous
 62
     7
100
AcDbSpline
210
0.0
220
0.0
230
1.0
 70
     8
 71
     3
 72
     9
 73
     5
 74
     3
 42
0.000000001
 43
0.0000000001
 44
0.00000001
 40
0.0
 40
0.0
 40
0.0
 40
0.0
 40
0.00145198259129
 40
0.0027325677110861
 40
0.0027325677110861
 40
0.0027325677110861
 40
0.0027325677110861
 10
-171.8957072671871
 20
99.028105928801
 30
0.0
 10
-171.8952355544767
 20
99.02799092289503
 30
0.0
 10
-171.8943478085295
 20
99.02777450653497
 30
0.0
 10
-171.8934349703791
 20
99.02774420496206
 30
0.0
 10
-171.8930071788234
 20
99.02773001382333
 30
0.0
 11
-171.8957072671871
 21
99.028105928801
 31
0.0
 11
-171.8942850422511
 21
99.02781347081601
 31
0.0
 11
-171.8930071788234
 21
99.02773001382333
 31
0.0
  0
SPLINE
  5
1A1
330
1F
100
AcDbEntity
  8
0
  6
Continuous
 62
     7
100
AcDbSpline
210
0.0
220
0.0
230
1.0
 70
     8
 71
     3
 72
    20
 73
    16
 74
    14
 42
0.000000001
 43
0.0000000001
 44
0.00000001
 40
0.0
 40
0.0
 40
0.0
 40
0.0
 40
0.9961127683043467
 40
1.985023929190363
 40
2.571670457727324
 40
3.130902583830157
 40
3.654508303553043
 40
4.134275588365694
 40
4.556742380669377
 40
4.920158229587457
 40
5.223215957848331
 40
5.464610418759412
 40
5.652821389029805
 40
5.768769850580819
 40
5.820062898087192
 40
5.820062898087192
 40
5.820062898087192
 40
5.820062898087192
 10
-177.767802909806
 20
102.0251172563022
 30
0.0
 10
-177.4357654011059
 20
102.025455795831
 30
0.0
 10
-176.7740909189482
 20
102.0261304420241
 30
0.0
 10
-175.9168713013424
 20
102.0288704348146
 30
0.0
 10
-175.2052798266273
 20
102.0315556747113
 30
0.0
 10
-174.6487897267949
 20
102.0338576875922
 30
0.0
 10
-174.1279261127264
 20
102.0360431254563
 30
0.0
 10
-173.6526493746575
 20
102.037935792975
 30
0.0
 10
-173.230770017826
 20
102.0393214068628
 30
0.0
 10
-172.867785626747
 20
102.0401527782169
 30
0.0
 10
-172.5651766611408
 20
102.0399991383317
 30
0.0
 10
-172.3209184781561
 20
102.0395750873122
 30
0.0
 10
-172.1391677440656
 20
102.036607567159
 30
0.0
 10
-172.0205331914368
 20
102.0358287581933
 30
0.0
 10
-171.9650799860859
 20
102.0299185775847
 30
0.0
 10
-171.9480724619715
 20
102.0281059288015
 30
0.0
 11
-177.767802909806
 21
102.0251172563022
 31
0.0
 11
-176.7716910955956
 21
102.0264955727018
 31
0.0
 11
-175.7827842541992
 21
102.0294184378046
 31
0.0
 11
-175.1961418811048
 21
102.0316264978498
 31
0.0
 11
-174.6369144273083
 21
102.0339124944543
 31
0.0
 11
-174.1133132145168
 21
102.0360849777951
 31
0.0
 11
-173.6335495644371
 21
102.0379524980491
 31
0.0
 11
-173.2110849557373
 21
102.039310801221
 31
0.0
 11
-172.8476697872103
 21
102.0400140222168
 31
0.0
 11
-172.5446120736762
 21
102.0399196059308
 31
0.0
 11
-172.3032198299547
 21
102.0388849972575
 31
0.0
 11
-172.1150228183223
 21
102.0365928100844
 31
0.0
 11
-171.9991293416781
 21
102.0330224041577
 31
0.0
 11
-171.9480724619715
 21
102.0281059288015
 31
0.0
  0
SPLINE
  5
1A2
330
1F
100
AcDbEntity
  8
0
  6
Continuous
 62
     7
100
AcDbSpline
210
0.0
220
0.0
230
1.0
 70
     8
 71
     3
 72
     9
 73
     5
 74
     3
 42
0.000000001
 43
0.0000000001
 44
0.00000001
 40
0.0
 40
0.0
 40
0.0
 40
0.0
 40
0.0014519825912249
 40
0.0027325677110633
 40
0.0027325677110633
 40
0.0027325677110633
 40
0.0027325677110633
 10
-172.9485603216963
 20
103.528105928801
 30
0.0
 10
-172.9480886089858
 20
103.5279909228951
 30
0.0
 10
-172.9472008630388
 20
103.5277745065353
 30
0.0
 10
-172.9462880248882
 20
103.5277442049621
 30
0.0
 10
-172.9458602333326
 20
103.5277300138233
 30
0.0
 11
-172.9485603216963
 21
103.528105928801
 31
0.0
 11
-172.9471380967603
 21
103.5278134708162
 31
0.0
 11
-172.9458602333326
 21
103.5277300138233
 31
0.0
  0
SPLINE
  5
1A3
330
1F
100
AcDbEntity
  8
0
  6
Continuous
 62
     7
100
AcDbSpline
210
0.0
220
0.0
230
1.0
 70
     8
 71
     3
 72
    10
 73
     6
 74
     4
 42
0.000000001
 43
0.0000000001
 44
0.00000001
 40
0.0
 40
0.0
 40
0.0
 40
0.0
 40
0.0213809641404462
 40
0.0719602873175636
 40
0.1522306622985903
 40
0.1522306622985903
 40
0.1522306622985903
 40
0.1522306622985903
 10
-171.9689808073425
 20
105.0282319649556
 30
0.0
 10
-171.974849331629
 20
105.0241436652984
 30
0.0
 10
-171.9946005630741
 20
105.0103839665036
 30
0.0
 10
-172.0255576456765
 20
104.9693402658792
 30
0.0
 10
-172.0526695394434
 20
104.9353575061339
 30
0.0
 10
-172.0693014757617
 20
104.9145106330162
 30
0.0
 11
-171.9689808073425
 21
105.0282319649556
 31
0.0
 11
-171.9861345857147
 21
105.0154689885241
 31
0.0
 11
-172.0195948955975
 21
104.9775391076039
 31
0.0
 11
-172.0693014757617
 21
104.9145106330162
 31
0.0
  0
SPLINE
  5
1A4
330
1F
100
AcDbEntity
  8
0
  6
Continuous
 62
     7
100
AcDbSpline
210
0.0
220
0.0
230
1.0
 70
     8
 71
     3
 72
     9
 73
     5
 74
     3
 42
0.000000001
 43
0.0000000001
 44
0.00000001
 40
0.0
 40
0.0
 40
0.0
 40
0.0
 40
0.0014519825911307
 40
0.0027325677107975
 40
0.0027325677107975
 40
0.0027325677107975
 40
0.0027325677107975
 10
-171.9480724619715
 20
102.0281059288015
 30
0.0
 10
-171.9476007492611
 20
102.0279909228956
 30
0.0
 10
-171.9467130033141
 20
102.0277745065358
 30
0.0
 10
-171.9458001651637
 20
102.0277442049623
 30
0.0
 10
-171.9453723736081
 20
102.0277300138233
 30
0.0
 11
-171.9480724619715
 21
102.0281059288015
 31
0.0
 11
-171.9466502370356
 21
102.0278134708166
 31
0.0
 11
-171.9453723736081
 21
102.0277300138233
 31
0.0
  0
SPLINE
  5
1A5
330
1F
100
AcDbEntity
  8
0
  6
Continuous
 62
     7
100
AcDbSpline
210
0.0
220
0.0
230
1.0
 70
     8
 71
     3
 72
    20
 73
    16
 74
    14
 42
0.000000001
 43
0.0000000001
 44
0.00000001
 40
0.0
 40
0.0
 40
0.0
 40
0.0
 40
0.0512991304032236
 40
0.1672647554174911
 40
0.3555068936000964
 40
0.597034530138766
 40
0.9002745071396846
 40
1.263916772849292
 40
1.68664924321854
 40
2.166680733474711
 40
2.690564618636252
 40
3.250078656707041
 40
3.83700063065554
 40
4.824963686736248
 40
5.820062892085001
 40
5.820062892085001
 40
5.820062892085001
 40
5.820062892085001
 10
-172.9485603216963
 20
103.528105928801
 30
0.0
 10
-172.9655698727159
 20
103.5299186946096
 30
0.0
 10
-173.0210308184851
 20
103.5358293773871
 30
0.0
 10
-173.1396835267394
 20
103.5366079486647
 30
0.0
 10
-173.3214947446282
 20
103.539575996228
 30
0.0
 10
-173.5658684824824
 20
103.5399994740373
 30
0.0
 10
-173.8686580516108
 20
103.540152430556
 30
0.0
 10
-174.2318672254376
 20
103.5393197302042
 30
0.0
 10
-174.6539986774277
 20
103.5379326228402
 30
0.0
 10
-175.1295447616567
 20
103.5360384549418
 30
0.0
 10
-175.6506831337178
 20
103.5338517648231
 30
0.0
 10
-176.2074517401057
 20
103.5315489060515
 30
0.0
 10
-176.9189129704284
 20
103.5288651351737
 30
0.0
 10
-177.7755705217594
 20
103.5261287761574
 30
0.0
 10
-178.436591114992
 20
103.5254552326035
 30
0.0
 10
-178.768290769541
 20
103.5251172563022
 30
0.0
 11
-172.9485603216963
 21
103.528105928801
 31
0.0
 11
-172.9996232821883
 21
103.5330227182752
 31
0.0
 11
-173.1155339262456
 21
103.5365932602891
 31
0.0
 11
-173.3037621086892
 21
103.5388853992096
 31
0.0
 11
-173.5452875293927
 21
103.5399199770904
 31
0.0
 11
-173.8485274919039
 21
103.5400136574579
 31
0.0
 11
-174.2121690752557
 21
103.5393092014561
 31
0.0
 11
-174.6348993584807
 21
103.5379493702286
 31
0.0
 11
-175.114927210299
 21
103.5360803840287
 31
0.0
 11
-175.6388065857114
 21
103.5339066444602
 31
0.0
 11
-176.1983159503959
 21
103.5316198074892
 31
0.0
 11
-176.7852337700304
 21
103.5294115290818
 31
0.0
 11
-177.7731925160515
 21
103.5264932561608
 31
0.0
 11
-178.768290769541
 21
103.5251172563022
 31
0.0
  0
SPLINE
  5
1A6
330
1F
100
AcDbEntity
  8
0
  6
Continuous
 62
     7
100
AcDbSpline
210
0.0
220
0.0
230
1.0
 70
     8
 71
     3
 72
    20
 73
    16
 74
    14
 42
0.000000001
 43
0.0000000001
 44
0.00000001
 40
0.0
 40
0.0
 40
0.0
 40
0.0
 40
0.0512991303918596
 40
0.1672647553973809
 40
0.3555068935998277
 40
0.5970345301741098
 40
0.9002745072021143
 40
1.263916772907118
 40
1.686649243217162
 40
2.166680733486464
 40
2.690564618651558
 40
3.250078656717658
 40
3.83700063065476
 40
4.824963686737769
 40
5.820062892074613
 40
5.820062892074613
 40
5.820062892074613
 40
5.820062892074613
 10
-172.8961951269115
 20
100.528105928801
 30
0.0
 10
-172.9132046779274
 20
100.5299186946094
 30
0.0
 10
-172.9686656236896
 20
100.5358293773868
 30
0.0
 10
-173.0873183319441
 20
100.5366079486644
 30
0.0
 10
-173.2691295498483
 20
100.5395759962282
 30
0.0
 10
-173.5135032877301
 20
100.5399994740374
 30
0.0
 10
-173.8162928568778
 20
100.540152430556
 30
0.0
 10
-174.1795020306924
 20
100.539319730204
 30
0.0
 10
-174.6016334826655
 20
100.5379326228401
 30
0.0
 10
-175.0771795668804
 20
100.5360384549417
 30
0.0
 10
-175.5983179389456
 20
100.5338517648231
 30
0.0
 10
-176.1550865453292
 20
100.5315489060515
 30
0.0
 10
-176.8665477756473
 20
100.5288651351737
 30
0.0
 10
-177.7232053269714
 20
100.5261287761575
 30
0.0
 10
-178.3842259202008
 20
100.5254552326035
 30
0.0
 10
-178.7159255747458
 20
100.5251172563022
 30
0.0
 11
-172.8961951269115
 21
100.528105928801
 31
0.0
 11
-172.9472580873921
 21
100.5330227182747
 31
0.0
 11
-173.0631687314407
 21
100.5365932602887
 31
0.0
 11
-173.2513969139041
 21
100.5388853992096
 31
0.0
 11
-173.4929223346432
 21
100.5399199770905
 31
0.0
 11
-173.7961622971815
 21
100.5400136574579
 31
0.0
 11
-174.1598038805287
 21
100.5393092014559
 31
0.0
 11
-174.5825341636945
 21
100.5379493702286
 31
0.0
 11
-175.062562015526
 21
100.5360803840287
 31
0.0
 11
-175.5864413909418
 21
100.5339066444602
 31
0.0
 11
-176.1459507556216
 21
100.5316198074892
 31
0.0
 11
-176.7328685752448
 21
100.5294115290818
 31
0.0
 11
-177.7208273212682
 21
100.5264932561608
 31
0.0
 11
-178.7159255747458
 21
100.5251172563022
 31
0.0
  0
SPLINE
  5
1A7
330
1F
100
AcDbEntity
  8
0
  6
Continuous
 62
     7
100
AcDbSpline
210
0.0
220
0.0
230
1.0
 70
     8
 71
     3
 72
    11
 73
     7
 74
     5
 42
0.000000001
 43
0.0000000001
 44
0.00000001
 40
0.0
 40
0.0
 40
0.0
 40
0.0
 40
0.8179297065598645
 40
1.504442698088781
 40
2.06836660407307
 40
2.539738733116237
 40
2.539738733116237
 40
2.539738733116237
 40
2.539738733116237
 10
-179.8398525756549
 20
144.0251166549348
 30
0.0
 10
-180.0006367661363
 20
144.2462737127026
 30
0.0
 10
-180.2963719688174
 20
144.6530545311266
 30
0.0
 10
-180.7953967209608
 20
145.1291124752879
 30
0.0
 10
-181.2853556899621
 20
145.4552055440125
 30
0.0
 10
-181.6309073126895
 20
145.5032444584369
 30
0.0
 10
-181.7882375836009
 20
145.5251166549348
 30
0.0
 11
-179.8398525756549
 21
144.0251166549348
 31
0.0
 11
-180.3420785377943
 21
144.6707001716196
 31
0.0
 11
-180.841291596085
 21
145.141960624742
 31
0.0
 11
-181.3268081061028
 21
145.4288123242171
 31
0.0
 11
-181.7882375836009
 21
145.5251166549348
 31
0.0
  0
SPLINE
  5
1A8
330
1F
100
AcDbEntity
  8
0
  6
Continuous
 62
     7
100
AcDbSpline
210
0.0
220
0.0
230
1.0
 70
     8
 71
     3
 72
    75
 73
    71
 74
    69
 42
0.000000001
 43
0.0000000001
 44
0.00000001
 40
0.0
 40
0.0
 40
0.0
 40
0.0
 40
0.0036003171151499
 40
0.0107261540011679
 40
0.0231732068112295
 40
0.0509546354998053
 40
0.0898899672866019
 40
0.1398901437431498
 40
0.2008240911012109
 40
0.2725448989163183
 40
0.3548983802743196
 40
0.4477265438971256
 40
0.550869219686797
 40
0.6641649023918142
 40
0.7927373110997161
 40
0.9216508592716988
 40
1.048198132607241
 40
1.169670824577207
 40
1.283360008823776
 40
1.465009361580081
 40
1.655255481991314
 40
1.853536452112138
 40
2.059290196262029
 40
2.201254080713562
 40
2.339179872182388
 40
2.472288566815664
 40
2.599801090950055
 40
2.720938311014726
 40
2.834921041770348
 40
2.940970053228791
 40
3.096908780145623
 40
3.246645726659628
 40
3.389562298952637
 40
3.525039850869929
 40
3.652459689494448
 40
3.771203080031116
 40
3.880651250121324
 40
4.199695666932779
 40
4.515755568061686
 40
4.82713449125849
 40
5.132782251629334
 40
5.430780131081825
 40
5.7194999022656
 40
5.832579455516655
 40
5.95460222946217
 40
6.084063107561667
 40
6.219457107542576
 40
6.359279414692619
 40
6.50202542589773
 40
6.616623189515505
 40
6.739508044236871
 40
6.86788512007683
 40
6.998960161928349
 40
7.12993979908994
 40
7.218033719899255
 40
7.296612204106484
 40
7.366236139335254
 40
7.427466259265803
 40
7.48086310632456
 40
7.526986983670211
 40
7.56639789348702
 40
7.60949885685658
 40
7.651970613211767
 40
7.692319290270368
 40
7.729057082103328
 40
7.760708844623955
 40
7.78583088422004
 40
7.798519721054603
 40
7.807484157334848
 40
7.812445857281292
 40
7.812445857281292
 40
7.812445857281292
 40
7.812445857281292
 10
-171.2108391608854
 20
83.62533582027994
 30
0.0
 10
-171.2119555717837
 20
83.62585189458926
 30
0.0
 10
-171.2152816202082
 20
83.62738937953434
 30
0.0
 10
-171.2182587504053
 20
83.63514746313878
 30
0.0
 10
-171.2232379294203
 20
83.64973201636167
 30
0.0
 10
-171.2283260019734
 20
83.67595807193416
 30
0.0
 10
-171.2343550714729
 20
83.7142509314561
 30
0.0
 10
-171.2404255661915
 20
83.76390231074244
 30
0.0
 10
-171.2467057983538
 20
83.82444306262323
 30
0.0
 10
-171.2530824106806
 20
83.89583755561745
 30
0.0
 10
-171.2595606280478
 20
83.97788160467888
 30
0.0
 10
-171.2661112027539
 20
84.0704264521749
 30
0.0
 10
-171.2727197383394
 20
84.17330359343705
 30
0.0
 10
-171.2794722161099
 20
84.28810931969748
 30
0.0
 10
-171.2861536433772
 20
84.4115228473997
 30
0.0
 10
-171.2925731897352
 20
84.53937312561101
 30
0.0
 10
-171.2984736996706
 20
84.6648791770598
 30
0.0
 10
-171.3038194535825
 20
84.78533044315989
 30
0.0
 10
-171.3096776401166
 20
84.9241440448627
 30
0.0
 10
-171.3161091589122
 20
85.08587799386136
 30
0.0
 10
-171.3231637490287
 20
85.27580602845036
 30
0.0
 10
-171.3300441775536
 20
85.47378028666446
 30
0.0
 10
-171.3359657467997
 20
85.65568360381764
 30
0.0
 10
-171.3409570467447
 20
85.81748782057286
 30
0.0
 10
-171.3450240635481
 20
85.95509389209437
 30
0.0
 10
-171.3487916001008
 20
86.08788949011705
 30
0.0
 10
-171.3522622379039
 20
86.21509498900816
 30
0.0
 10
-171.3554385939264
 20
86.3359307583624
 30
0.0
 10
-171.358323277312
 20
86.44961716833899
 30
0.0
 10
-171.3613981889447
 20
86.57490294151694
 30
0.0
 10
-171.364633123753
 20
86.71210640375404
 30
0.0
 10
-171.3679940065916
 20
86.86159940503546
 30
0.0
 10
-171.3710553172016
 20
87.004276947278
 30
0.0
 10
-171.3738273733819
 20
87.13951988140516
 30
0.0
 10
-171.3763204963291
 20
87.26670905823703
 30
0.0
 10
-171.3785449970254
 20
87.38522533042797
 30
0.0
 10
-171.3818281449557
 20
87.56760778510163
 30
0.0
 10
-171.3859384242911
 20
87.81575812245785
 30
0.0
 10
-171.3904867760638
 20
88.13121998572522
 30
0.0
 10
-171.3942929333616
 20
88.44222581237581
 30
0.0
 10
-171.3973379650095
 20
88.7472190725345
 30
0.0
 10
-171.3996051200277
 20
89.04466584954537
 30
0.0
 10
-171.4007963709456
 20
89.27792884453203
 30
0.0
 10
-171.401349837865
 20
89.4525353625194
 30
0.0
 10
-171.4015891338267
 20
89.57405623014117
 30
0.0
 10
-171.4016667289161
 20
89.703015469226
 30
0.0
 10
-171.4015383999766
 20
89.83790786532198
 30
0.0
 10
-171.401159991846
 20
89.97722820468772
 30
0.0
 10
-171.4005340799713
 20
90.1096155269828
 30
0.0
 10
-171.3996725396299
 20
90.23635555163813
 30
0.0
 10
-171.3985828316344
 20
90.35830402647217
 30
0.0
 10
-171.3971147804993
 20
90.4857414023522
 30
0.0
 10
-171.3952073037563
 20
90.61587158878714
 30
0.0
 10
-171.3930475952289
 20
90.73256819938186
 30
0.0
 10
-171.3908071163876
 20
90.8317604557529
 30
0.0
 10
-171.3887321490747
 20
90.91049876846736
 30
0.0
 10
-171.3866089363419
 20
90.98027753057306
 30
0.0
 10
-171.3844703575252
 20
91.04165746204538
 30
0.0
 10
-171.3823493291629
 20
91.09519932044753
 30
0.0
 10
-171.3802786008819
 20
91.14146370516164
 30
0.0
 10
-171.3781263800981
 20
91.18428866122375
 30
0.0
 10
-171.3757613879909
 20
91.22588229396783
 30
0.0
 10
-171.3730051548991
 20
91.2677692370984
 30
0.0
 10
-171.3698875386528
 20
91.30749109203677
 30
0.0
 10
-171.3664654384219
 20
91.34360994597344
 30
0.0
 10
-171.3625797784088
 20
91.37445057674174
 30
0.0
 10
-171.3590059218632
 20
91.3975571912435
 30
0.0
 10
-171.3548640907775
 20
91.41226855932058
 30
0.0
 10
-171.35242532894
 20
91.4214259335627
 30
0.0
 10
-171.3484110569401
 20
91.42397759617218
 30
0.0
 10
-171.346980828343
 20
91.42488672527465
 30
0.0
 11
-171.2108391608854
 21
83.62533582027994
 31
0.0
 11
-171.2139689162012
 21
83.62711539820317
 31
0.0
 11
-171.2175145978348
 21
83.6332964733935
 31
0.0
 11
-171.2214681361692
 21
83.64509895805544
 31
0.0
 11
-171.2274631412127
 21
83.67222583898513
 31
0.0
 11
-171.2335934405404
 21
83.71067553950498
 31
0.0
 11
-171.2398447136438
 21
83.76028339382793
 31
0.0
 11
-171.2462026400146
 21
83.82088473616695
 31
0.0
 11
-171.2526528991443
 21
83.892314900735
 31
0.0
 11
-171.2591811705244
 21
83.97440922174502
 31
0.0
 11
-171.2657731336467
 21
84.06700303340995
 31
0.0
 11
-171.2724144680026
 21
84.16993166994278
 31
0.0
 11
-171.2790908530838
 21
84.28303046555642
 31
0.0
 11
-171.286063787069
 21
84.41141365149598
 31
0.0
 11
-171.2925436394924
 21
84.54016424129945
 31
0.0
 11
-171.298496641916
 21
84.66657141717316
 31
0.0
 11
-171.3038890259015
 21
84.78792436132338
 31
0.0
 11
-171.3086870230108
 21
84.9015122559564
 31
0.0
 11
-171.3159178956706
 21
85.08301763261731
 31
0.0
 11
-171.3229902774004
 21
85.27313224977856
 31
0.0
 11
-171.3298863880648
 21
85.47129326176184
 31
0.0
 11
-171.3365884475286
 21
85.67693782288883
 31
0.0
 11
-171.3409675648792
 21
85.81883415041939
 31
0.0
 11
-171.3450438111535
 21
85.95669969403956
 31
0.0
 11
-171.3488198826645
 21
86.08975481728855
 31
0.0
 11
-171.3522984757249
 21
86.21721988370557
 31
0.0
 11
-171.3554822866477
 21
86.33831525682989
 31
0.0
 11
-171.3583740117458
 21
86.45226130020069
 31
0.0
 11
-171.3609763473319
 21
86.55827837735718
 31
0.0
 11
-171.3646528078972
 21
86.71417375932913
 31
0.0
 11
-171.3680189196403
 21
86.86387286546463
 31
0.0
 11
-171.3710850546207
 21
87.00675654330134
 31
0.0
 11
-171.3738615848976
 21
87.14220564037699
 31
0.0
 11
-171.37635888253
 21
87.26960100422922
 31
0.0
 11
-171.3785873195774
 21
87.38832348239575
 31
0.0
 11
-171.380557268099
 21
87.4977539224143
 31
0.0
 11
-171.385840305232
 21
87.81675459499483
 31
0.0
 11
-171.3903936074566
 21
88.13278169546871
 31
0.0
 11
-171.3941982470251
 21
88.44413737348226
 31
0.0
 11
-171.397241584731
 21
88.74976998173912
 31
0.0
 11
-171.3995017962824
 21
89.04775928915332
 31
0.0
 11
-171.4009613929003
 21
89.3364753704533
 31
0.0
 11
-171.4013186121524
 21
89.44955435930666
 31
0.0
 11
-171.4015572539483
 21
89.5715768997153
 31
0.0
 11
-171.4016327701607
 21
89.70103775560156
 31
0.0
 11
-171.4015006126619
 21
89.8364316908878
 31
0.0
 11
-171.4011162333248
 21
89.97625346949647
 31
0.0
 11
-171.4004350840219
 21
90.11899785534992
 31
0.0
 11
-171.3996518990504
 21
90.23359294254992
 31
0.0
 11
-171.3985474236334
 21
90.35647283354677
 31
0.0
 11
-171.3970586952146
 21
90.48484127687496
 31
0.0
 11
-171.3951227512377
 21
90.61590202106893
 31
0.0
 11
-171.392676629146
 21
90.74685881466316
 31
0.0
 11
-171.3906770931192
 21
90.83493003990993
 31
0.0
 11
-171.3885969829423
 21
90.91348098709278
 31
0.0
 11
-171.3864694140718
 21
90.98307240748531
 31
0.0
 11
-171.3843275019643
 21
91.04426505236114
 31
0.0
 11
-171.3822043620762
 21
91.09761967299397
 31
0.0
 11
-171.3801331098638
 21
91.1436970206573
 31
0.0
 11
-171.3781468607838
 21
91.18305784662483
 31
0.0
 11
-171.3756850821393
 21
91.22608844830359
 31
0.0
 11
-171.3728674678971
 21
91.26846663996221
 31
0.0
 11
-171.3696794362187
 21
91.30868917324298
 31
0.0
 11
-171.3661064052661
 21
91.34525279978807
 31
0.0
 11
-171.3621337932007
 21
91.37665427123974
 31
0.0
 11
-171.3577470181844
 21
91.40139033924028
 31
0.0
 11
-171.3545113667419
 21
91.41365969657845
 31
0.0
 11
-171.3509239257237
 21
91.4218750104651
 31
0.0
 11
-171.346980828343
 21
91.42488672527465
 31
0.0
  0
SPLINE
  5
1A9
330
1F
100
AcDbEntity
  8
0
  6
Continuous
 62
     2
100
AcDbSpline
210
0.0
220
0.0
230
1.0
 70
     8
 71
     3
 72
    80
 73
    76
 74
    74
 42
0.000000001
 43
0.0000000001
 44
0.00000001
 40
0.0
 40
0.0
 40
0.0
 40
0.0
 40
0.0028698555207214
 40
0.008017156274055
 40
0.015392319697694
 40
0.0236879910594099
 40
0.034821741629114
 40
0.0492701345426277
 40
0.0675083436247733
 40
0.0900106166222405
 40
0.1172505776616812
 40
0.1497014220996578
 40
0.1738805043981433
 40
0.2021948129999297
 40
0.2349935086639106
 40
0.2726259352012033
 40
0.3154415813662708
 40
0.36379005132404
 40
0.4180210417913576
 40
0.4568683110712817
 40
0.5008935183387748
 40
0.550302163006126
 40
0.6052998173393724
 40
0.6660921206524447
 40
0.7328847738666325
 40
0.8058835344938062
 40
0.856819449347312
 40
0.9136812717405502
 40
0.9765128147516948
 40
1.04535793132665
 40
1.120260513945805
 40
1.201264494200501
 40
1.288413842319583
 40
1.348846796190473
 40
1.415375034865999
 40
1.487889595705087
 40
1.566281542947947
 40
1.650441968757929
 40
1.740261994260522
 40
1.835632770599453
 40
1.932006008664418
 40
2.024487052019269
 40
2.112708685804386
 40
2.196303663125047
 40
2.274904708358842
 40
2.348144520067183
 40
2.415655773579116
 40
2.612533392969697
 40
2.806911806387527
 40
2.997890924650744
 40
3.184570682999357
 40
3.36605107245056
 40
3.541432177859741
 40
3.611318616690935
 40
3.686295532917808
 40
3.765485908069771
 40
3.848012809059961
 40
3.932999409179854
 40
4.019569015823374
 40
4.125474010770458
 40
4.224615948517592
 40
4.316774852577015
 40
4.401731031972765
 40
4.471580786344886
 40
4.535075219032092
 40
4.592126288389862
 40
4.642646814701184
 40
4.68655103036073
 40
4.723755645649645
 40
4.754182141716705
 40
4.777762482564076
 40
4.794456869245293
 40
4.801493809811122
 40
4.805723950126679
 40
4.80797752837084
 40
4.80797752837084
 40
4.80797752837084
 40
4.80797752837084
 10
-169.7365093370738
 20
85.12511665497335
 30
0.0
 10
-169.7373536223332
 20
85.1256132356297
 30
0.0
 10
-169.7397122069358
 20
85.12700045611577
 30
0.0
 10
-169.741367416059
 20
85.13221353094882
 30
0.0
 10
-169.7434857051276
 20
85.13867044353043
 30
0.0
 10
-169.7454135825646
 20
85.14745915337986
 30
0.0
 10
-169.7475106028555
 20
85.15853281457026
 30
0.0
 10
-169.7497690123747
 20
85.17297540890266
 30
0.0
 10
-169.7522300166443
 20
85.19120363758871
 30
0.0
 10
-169.7548738969611
 20
85.21371129796333
 30
0.0
 10
-169.7577038712146
 20
85.24096259570064
 30
0.0
 10
-169.7602853516243
 20
85.26880042525556
 30
0.0
 10
-169.7626939769538
 20
85.297012619299
 30
0.0
 10
-169.7649567397688
 20
85.32535328136426
 30
0.0
 10
-169.767408353796
 20
85.35817712343102
 30
0.0
 10
-169.7700410358379
 20
85.3958342640583
 30
0.0
 10
-169.7728471354357
 20
85.438674768703
 30
0.0
 10
-169.7758189032063
 20
85.48704872876516
 30
0.0
 10
-169.7785336880269
 20
85.53411284475466
 30
0.0
 10
-169.781037618534
 20
85.57974538610901
 30
0.0
 10
-169.7833557161414
 20
85.62377815539713
 30
0.0
 10
-169.7858475919558
 20
85.67319257312732
 30
0.0
 10
-169.7885010111378
 20
85.72819485099915
 30
0.0
 10
-169.7913037450105
 20
85.78899119740231
 30
0.0
 10
-169.7942435492783
 20
85.85578782207237
 30
0.0
 10
-169.7969100770838
 20
85.9193076979049
 30
0.0
 10
-169.7993413462899
 20
85.97952414939854
 30
0.0
 10
-169.8015620806411
 20
86.03635722261598
 30
0.0
 10
-169.8039318910628
 20
86.09915870586119
 30
0.0
 10
-169.8064345712123
 20
86.16797298053723
 30
0.0
 10
-169.8090539087959
 20
86.2428444271598
 30
0.0
 10
-169.8117736911852
 20
86.32381742601436
 30
0.0
 10
-169.814224826027
 20
86.3999734443905
 30
0.0
 10
-169.8164388208083
 20
86.47130928478168
 30
0.0
 10
-169.8184384470467
 20
86.5377711390129
 30
0.0
 10
-169.820545958351
 20
86.61021875292623
 30
0.0
 10
-169.8227432010531
 20
86.68854359863195
 30
0.0
 10
-169.8250120106078
 20
86.77263714793013
 30
0.0
 10
-169.8273342203666
 20
86.86239087290875
 30
0.0
 10
-169.8296550659659
 20
86.956216874321
 30
0.0
 10
-169.8318898751355
 20
87.05093221901174
 30
0.0
 10
-169.8339673865839
 20
87.14326750602595
 30
0.0
 10
-169.8358586431671
 20
87.23134643621968
 30
0.0
 10
-169.8375702880614
 20
87.31480144955395
 30
0.0
 10
-169.8391089625556
 20
87.39326498534379
 30
0.0
 10
-169.8404813058865
 20
87.46636948420081
 30
0.0
 10
-169.8425064818221
 20
87.57889416289034
 30
0.0
 10
-169.8450363357624
 20
87.73179579894484
 30
0.0
 10
-169.8478239313462
 20
87.92585431344294
 30
0.0
 10
-169.8501392212154
 20
88.11651951516183
 30
0.0
 10
-169.8519744367111
 20
88.30289040797592
 30
0.0
 10
-169.8533218537261
 20
88.4840659933745
 30
0.0
 10
-169.8540142028683
 20
88.62631381185273
 30
0.0
 10
-169.8543212275906
 20
88.73306154326927
 30
0.0
 10
-169.8544428556075
 20
88.80774604391881
 30
0.0
 10
-169.8544594896922
 20
88.886644136054
 30
0.0
 10
-169.8543446423561
 20
88.96887872109973
 30
0.0
 10
-169.8540718920225
 20
89.05357270584318
 30
0.0
 10
-169.8535818849611
 20
89.14605854525149
 30
0.0
 10
-169.8528111546581
 20
89.24326116779535
 30
0.0
 10
-169.8516945506248
 20
89.34232369377172
 30
0.0
 10
-169.8503062760776
 20
89.43439915891847
 30
0.0
 10
-169.848702553609
 20
89.51670545402617
 30
0.0
 10
-169.8469234336667
 20
89.5894508515828
 30
0.0
 10
-169.8450195025653
 20
89.65288759566963
 30
0.0
 10
-169.8429268882765
 20
89.70987223846751
 30
0.0
 10
-169.8406516279572
 20
89.76031200438582
 30
0.0
 10
-169.8382096392853
 20
89.80412637978772
 30
0.0
 10
-169.8355939010396
 20
89.84120047019323
 30
0.0
 10
-169.8328758555084
 20
89.87152348614163
 30
0.0
 10
-169.8299417561263
 20
89.89481879456008
 30
0.0
 10
-169.8273536365706
 20
89.91057938415192
 30
0.0
 10
-169.8246170196985
 20
89.91926255636301
 30
0.0
 10
-169.8229821649331
 20
89.92383179915412
 30
0.0
 10
-169.8209786647752
 20
89.92478528108202
 30
0.0
 10
-169.8202823015481
 20
89.92511669304135
 30
0.0
 11
-169.7365093370738
 21
85.12511665497335
 31
0.0
 11
-169.7388504386248
 21
85.12677656491739
 31
0.0
 11
-169.7411156010606
 21
85.13139865780971
 31
0.0
 11
-169.7432884990792
 21
85.13844646197062
 31
0.0
 11
-169.7451739459138
 21
85.1465250292611
 31
0.0
 11
-169.7472552119179
 21
85.1574625211629
 31
0.0
 11
-169.7495293266819
 21
85.17173082361832
 31
0.0
 11
-169.751993319796
 21
85.18980182256956
 31
0.0
 11
-169.7546442208504
 21
85.21214740395898
 31
0.0
 11
-169.7574790594354
 21
85.23923945372869
 31
0.0
 11
-169.7604948651412
 21
85.27154985782103
 31
0.0
 11
-169.7625563782153
 21
85.29564089724843
 31
0.0
 11
-169.7648154353894
 21
85.32386494244568
 31
0.0
 11
-169.7672641975005
 21
85.35657209755206
 31
0.0
 11
-169.7698948253858
 21
85.39411246670696
 31
0.0
 11
-169.7726994798822
 21
85.43683615404959
 31
0.0
 11
-169.775670321827
 21
85.48509326371935
 31
0.0
 11
-169.778799512057
 21
85.53923389985552
 31
0.0
 11
-169.7809295863678
 21
85.57802272694143
 31
0.0
 11
-169.7832461003429
 21
85.62198694681105
 31
0.0
 11
-169.7857367776864
 21
85.6713327742205
 31
0.0
 11
-169.7883893421028
 21
85.72626642392606
 31
0.0
 11
-169.7911915172967
 21
85.78699411068396
 31
0.0
 11
-169.7941310269723
 21
85.85372204925036
 31
0.0
 11
-169.797195594834
 21
85.9266564543815
 31
0.0
 11
-169.7992512366715
 21
85.97755087201577
 31
0.0
 11
-169.8014723386764
 21
86.03436929804471
 31
0.0
 11
-169.8038426681721
 21
86.09715611446657
 31
0.0
 11
-169.8063459924823
 21
86.16595570327962
 31
0.0
 11
-169.8089660789304
 21
86.2408124464821
 31
0.0
 11
-169.81168669484
 21
86.32177072607223
 31
0.0
 11
-169.8144916075346
 21
86.4088749240483
 31
0.0
 11
-169.8163666925857
 21
86.46927878114005
 31
0.0
 11
-169.8183678663135
 21
86.53577691512133
 31
0.0
 11
-169.8204769489489
 21
86.60826079800485
 31
0.0
 11
-169.8226757607227
 21
86.68662190180312
 31
0.0
 11
-169.8249461218658
 21
86.77075169852884
 31
0.0
 11
-169.8272698526091
 21
86.86054166019451
 31
0.0
 11
-169.8296287731835
 21
86.95588325881285
 31
0.0
 11
-169.831902526581
 21
87.05222967033635
 31
0.0
 11
-169.8339831169269
 21
87.14468730647522
 31
0.0
 11
-169.8358772167772
 21
87.232888604731
 31
0.0
 11
-169.837591498688
 21
87.31646600260521
 31
0.0
 11
-169.8391326352153
 21
87.39505193759933
 31
0.0
 11
-169.8405072989154
 21
87.46827884721495
 31
0.0
 11
-169.8417221623444
 21
87.5357791689536
 31
0.0
 11
-169.8449781140164
 21
87.7326298626379
 31
0.0
 11
-169.847767612286
 21
87.92698825869849
 31
0.0
 11
-169.8500827094546
 21
88.11795334389855
 31
0.0
 11
-169.851915457824
 21
88.30462410500131
 31
0.0
 11
-169.8532579096961
 21
88.48609952876996
 31
0.0
 11
-169.8541021173726
 21
88.66147860196783
 31
0.0
 11
-169.8543023166789
 21
88.73136475390253
 31
0.0
 11
-169.8544233269948
 21
88.80634157232072
 31
0.0
 11
-169.854438468334
 21
88.88553194586355
 31
0.0
 11
-169.85432106071
 21
88.96805876317221
 31
0.0
 11
-169.8540444241365
 21
89.0530449128879
 31
0.0
 11
-169.8535818786273
 21
89.1396132836518
 31
0.0
 11
-169.8527323338257
 21
89.24551487091529
 31
0.0
 11
-169.8516031408269
 21
89.34465037770055
 31
0.0
 11
-169.8501996553395
 21
89.43679859414053
 31
0.0
 11
-169.8485272330724
 21
89.52173831036829
 31
0.0
 11
-169.8468039389021
 21
89.59156680328587
 31
0.0
 11
-169.8448803835997
 21
89.65503209222295
 31
0.0
 11
-169.8427626408062
 21
89.7120438424591
 31
0.0
 11
-169.8404567841628
 21
89.7625117192738
 31
0.0
 11
-169.8379688873109
 21
89.80634538794668
 31
0.0
 11
-169.8353050238915
 21
89.84345451375722
 31
0.0
 11
-169.8324712675459
 21
89.873748761985
 31
0.0
 11
-169.8294736919153
 21
89.89713779790952
 31
0.0
 11
-169.8263183706408
 21
89.91353128681034
 31
0.0
 11
-169.8242410290105
 21
89.92025461757123
 31
0.0
 11
-169.8222240626135
 21
89.92397294139967
 31
0.0
 11
-169.8202823015481
 21
89.92511669304135
 31
0.0
  0
SPLINE
  5
1AA
330
1F
100
AcDbEntity
  8
0
  6
Continuous
 62
     7
100
AcDbSpline
210
0.0
220
0.0
230
1.0
 70
     8
 71
     3
 72
    11
 73
     7
 74
     5
 42
0.000000001
 43
0.0000000001
 44
0.00000001
 40
0.0
 40
0.0
 40
0.0
 40
0.0
 40
0.4919719603991231
 40
1.051545409095364
 40
1.550424869933139
 40
2.103090821834074
 40
2.103090821834074
 40
2.103090821834074
 40
2.103090821834074
 10
-169.7365093370738
 20
85.12511665497335
 30
0.0
 10
-169.8514868918494
 20
85.00818463898203
 30
0.0
 10
-170.0972409675206
 20
84.75825305774019
 30
0.0
 10
-170.4595425284099
 20
84.3897040262619
 30
0.0
 10
-170.8360084022771
 20
84.00670924843028
 30
0.0
 10
-171.0817064313485
 20
83.7567225683008
 30
0.0
 10
-171.2108391608854
 20
83.62533582027994
 30
0.0
 11
-169.7365093370738
 21
85.12511665497335
 31
0.0
 11
-170.0814354067039
 21
84.77431412318505
 31
0.0
 11
-170.4737220254499
 21
84.37527320643598
 31
0.0
 11
-170.82343715646
 21
84.0194923137661
 31
0.0
 11
-171.2108391608854
 21
83.62533582027994
 31
0.0
  0
SPLINE
  5
1AB
330
1F
100
AcDbEntity
  8
0
  6
Continuous
 62
     7
100
AcDbSpline
210
0.0
220
0.0
230
1.0
 70
     8
 71
     3
 72
    11
 73
     7
 74
     5
 42
0.000000001
 43
0.0000000001
 44
0.00000001
 40
0.0
 40
0.0
 40
0.0
 40
0.0
 40
0.4919719635702147
 40
1.051545409068066
 40
1.550424874907994
 40
2.103090821806776
 40
2.103090821806776
 40
2.103090821806776
 40
2.103090821806776
 10
-232.5943949959796
 20
85.12511665493516
 30
0.0
 10
-232.4794174404562
 20
85.00818463819675
 30
0.0
 10
-232.233663364777
 20
84.75825305697552
 30
0.0
 10
-231.8713618027279
 20
84.38970402431195
 30
0.0
 10
-231.4948959296073
 20
84.00670924724145
 30
0.0
 10
-231.2491979005361
 20
83.75672256711171
 30
0.0
 10
-231.1200651721681
 20
83.62533582027994
 30
0.0
 11
-232.5943949959796
 21
85.12511665493516
 31
0.0
 11
-232.2494689241096
 21
84.77431412090199
 31
0.0
 11
-231.8571823076036
 21
84.37527320643598
 31
0.0
 11
-231.5074671730869
 21
84.01949231019877
 31
0.0
 11
-231.1200651721681
 21
83.62533582027994
 31
0.0
  0
SPLINE
  5
1AC
330
1F
100
AcDbEntity
  8
0
  6
Continuous
 62
     2
100
AcDbSpline
210
0.0
220
0.0
230
1.0
 70
     8
 71
     3
 72
    69
 73
    65
 74
    63
 42
0.000000001
 43
0.0000000001
 44
0.00000001
 40
0.0
 40
0.0
 40
0.0
 40
0.0
 40
0.0050345947071341
 40
0.0152747777430124
 40
0.0252157599668968
 40
0.0391279978153125
 40
0.0577676139793214
 40
0.0818884824690809
 40
0.1122430691938155
 40
0.1495829397666377
 40
0.2046220778898121
 40
0.2678202935291487
 40
0.3389799743035197
 40
0.4179020574372444
 40
0.4637217300291852
 40
0.5166357648889013
 40
0.576970516964892
 40
0.6450524725408575
 40
0.7212082370098659
 40
0.8057645236493415
 40
0.9187548074426816
 40
1.037083269280118
 40
1.160384938209818
 40
1.288294754987978
 40
1.46531537295329
 40
1.647921434196019
 40
1.835179811634114
 40
2.026157291576177
 40
2.219920609926491
 40
2.415536482543858
 40
2.529702726115274
 40
2.637362417144472
 40
2.738181025620732
 40
2.831823971532333
 40
2.917956628585391
 40
2.996244327648704
 40
3.073502501452304
 40
3.157194120922391
 40
3.246570042233631
 40
3.340881177369084
 40
3.439378504378827
 40
3.541313080009862
 40
3.625815727131511
 40
3.717396074632487
 40
3.814538676868725
 40
3.915728281946736
 40
4.019449892064583
 40
4.102555165044834
 40
4.17745835901141
 40
4.2444876460966
 40
4.303971087295336
 40
4.356236620281181
 40
4.401612046005412
 40
4.47966255907859
 40
4.549657634461638
 40
4.611478992246044
 40
4.665009901888524
 40
4.695899427056697
 40
4.725879259133215
 40
4.753338283145779
 40
4.776678225471565
 40
4.794337665721391
 40
4.803234755629834
 40
4.807727295318951
 40
4.807727295318951
 40
4.807727295318951
 40
4.807727295318951
 10
-232.5943949959796
 20
85.12511665493516
 30
0.0
 10
-232.5931284029045
 20
85.12626182038778
 30
0.0
 10
-232.5892855914066
 20
85.12973619741557
 30
0.0
 10
-232.5877373351166
 20
85.1384914092535
 30
0.0
 10
-232.5849672472606
 20
85.14935244471597
 30
0.0
 10
-232.5826132660898
 20
85.1633951799991
 30
0.0
 10
-232.5798283821989
 20
85.18205073714617
 30
0.0
 10
-232.5768548140425
 20
85.2062544318581
 30
0.0
 10
-232.5736019847743
 20
85.23668245776065
 30
0.0
 10
-232.569803161462
 20
85.27741973449518
 30
0.0
 10
-232.565590513619
 20
85.3291077613961
 30
0.0
 10
-232.5610642712126
 20
85.39207861686813
 30
0.0
 10
-232.556494207356
 20
85.46302533706762
 30
0.0
 10
-232.5526861347154
 20
85.52821504289133
 30
0.0
 10
-232.5494538411749
 20
85.58734540294881
 30
0.0
 10
-232.5466970026241
 20
85.64029657105363
 30
0.0
 10
-232.5437093131869
 20
85.70066633035164
 30
0.0
 10
-232.5405102401594
 20
85.76878214414842
 30
0.0
 10
-232.5371191656177
 20
85.84497145895381
 30
0.0
 10
-232.533279068099
 20
85.93612479969633
 30
0.0
 10
-232.5291154422
 20
86.04133425647319
 30
0.0
 10
-232.5247435246227
 20
86.15946030019347
 30
0.0
 10
-232.5204756213854
 20
86.28256642921032
 30
0.0
 10
-232.5158385846398
 20
86.4252352258089
 30
0.0
 10
-232.5109441362487
 20
86.58767386309296
 30
0.0
 10
-232.505908324694
 20
86.76989948636333
 30
0.0
 10
-232.5011828849642
 20
86.95678722539708
 30
0.0
 10
-232.4967915894597
 20
87.14740319768103
 30
0.0
 10
-232.4927582071796
 20
87.34081351762748
 30
0.0
 10
-232.4896197860044
 20
87.50863279142128
 30
0.0
 10
-232.4872546515965
 20
87.64775999058978
 30
0.0
 10
-232.4855585859406
 20
87.75529482371758
 30
0.0
 10
-232.4840879418164
 20
87.85599118841671
 30
0.0
 10
-232.4828255889012
 20
87.94951409123982
 30
0.0
 10
-232.4817544033162
 20
88.03552853686138
 30
0.0
 10
-232.48082992569
 20
88.11608275391713
 30
0.0
 10
-232.4799901423262
 20
88.19582417470309
 30
0.0
 10
-232.4791955418258
 20
88.27926231189068
 30
0.0
 10
-232.4784467685987
 20
88.36838541248211
 30
0.0
 10
-232.4777733099381
 20
88.46244448953314
 30
0.0
 10
-232.4772046421265
 20
88.56069055653174
 30
0.0
 10
-232.4767988871075
 20
88.65566791519532
 30
0.0
 10
-232.4765433677858
 20
88.74834011606703
 30
0.0
 10
-232.4764320083652
 20
88.83941528885825
 30
0.0
 10
-232.4764865020144
 20
88.9360528517457
 30
0.0
 10
-232.4767524226023
 20
89.03673718886131
 30
0.0
 10
-232.4772386109128
 20
89.1327415696608
 30
0.0
 10
-232.4779032892578
 20
89.2199824812029
 30
0.0
 10
-232.4786607802314
 20
89.29499132111509
 30
0.0
 10
-232.4795109264006
 20
89.36212465520427
 30
0.0
 10
-232.4804229615343
 20
89.42171050027653
 30
0.0
 10
-232.4813660351984
 20
89.47407687503893
 30
0.0
 10
-232.4825809901496
 20
89.53262816444689
 30
0.0
 10
-232.484174308531
 20
89.59708240418713
 30
0.0
 10
-232.486346503176
 20
89.66700529212663
 30
0.0
 10
-232.4887553714207
 20
89.72874034191878
 30
0.0
 10
-232.4911448001163
 20
89.77743341262624
 30
0.0
 10
-232.4934766784415
 20
89.81548946377427
 30
0.0
 10
-232.4956073999921
 20
89.84487599504979
 30
0.0
 10
-232.4981496483552
 20
89.87162104949377
 30
0.0
 10
-232.5006536560688
 20
89.8944852867684
 30
0.0
 10
-232.5040668558373
 20
89.9104017555031
 30
0.0
 10
-232.5059784821707
 20
89.92119035131311
 30
0.0
 10
-232.5094554353606
 20
89.92413027431405
 30
0.0
 10
-232.5106220315053
 20
89.92511669304135
 30
0.0
 11
-232.5943949959796
 21
85.12511665493516
 31
0.0
 11
-232.5909108004726
 21
85.12875086800604
 31
0.0
 11
-232.5876158339743
 21
85.13844646197062
 31
0.0
 11
-232.5853970278019
 21
85.14813666433602
 31
0.0
 11
-232.5829123638269
 21
85.16182522895423
 31
0.0
 11
-232.5801665589499
 21
85.18026149321857
 31
0.0
 11
-232.5771643300714
 21
85.2041947945223
 31
0.0
 11
-232.5739103940919
 21
85.23437447025867
 31
0.0
 11
-232.5704094679122
 21
85.27154985782103
 31
0.0
 11
-232.5658929075993
 21
85.32640336628454
 31
0.0
 11
-232.5613279886696
 21
85.38943650007407
 31
0.0
 11
-232.5567276476324
 21
85.46044732324573
 31
0.0
 11
-232.5521048209964
 21
85.53923389985552
 31
0.0
 11
-232.5496012766866
 21
85.58498512556375
 31
0.0
 11
-232.5468467521787
 21
85.6378274160963
 31
0.0
 11
-232.5438607417752
 21
85.69808823284883
 31
0.0
 11
-232.5406627397791
 21
85.76609503721684
 31
0.0
 11
-232.5372722404929
 21
85.84217529059589
 31
0.0
 11
-232.5337087382195
 21
85.9266564543815
 31
0.0
 11
-232.5292328829522
 21
86.03955805270004
 31
0.0
 11
-232.5248499986905
 21
86.15780531547301
 31
0.0
 11
-232.5205724810181
 21
86.28103276511695
 31
0.0
 11
-232.5164127255189
 21
86.4088749240483
 31
0.0
 11
-232.5110726263459
 21
86.58581497719123
 31
0.0
 11
-232.5060217247564
 21
86.76835117050175
 31
0.0
 11
-232.5012836245741
 21
86.95554959515654
 31
0.0
 11
-232.496881929623
 21
87.1464763423323
 31
0.0
 11
-232.4928402437267
 21
87.34019750320576
 31
0.0
 11
-232.489182170709
 21
87.5357791689536
 31
0.0
 11
-232.4872418298622
 21
87.64992892234606
 31
0.0
 11
-232.4855442628035
 21
87.75757522880954
 31
0.0
 11
-232.4840723033528
 21
87.85838309116504
 31
0.0
 11
-232.4828087853297
 21
87.95201751223351
 31
0.0
 11
-232.4817365425538
 21
88.03814349483594
 31
0.0
 11
-232.4808384088447
 21
88.11642604179328
 31
0.0
 11
-232.4800251951772
 21
88.19367993542575
 31
0.0
 11
-232.4792287251837
 21
88.27736776476718
 31
0.0
 11
-232.4784785955509
 21
88.36674053795481
 31
0.0
 11
-232.4778044029651
 21
88.46104926312594
 31
0.0
 11
-232.477235744113
 21
88.55954494841787
 31
0.0
 11
-232.4768022156809
 21
88.66147860196783
 31
0.0
 11
-232.4765706254331
 21
88.74598093159187
 31
0.0
 11
-232.4764607511667
 21
88.83756121302474
 31
0.0
 11
-232.4765186958987
 21
88.93470379781401
 31
0.0
 11
-232.4767905626462
 21
89.03589303750718
 31
0.0
 11
-232.4773224544261
 21
89.1396132836518
 31
0.0
 11
-232.4779602545825
 21
89.22271610902362
 31
0.0
 11
-232.478721082837
 21
89.29761543871184
 31
0.0
 11
-232.479574060347
 21
89.36463929820344
 31
0.0
 11
-232.4804883082696
 21
89.42411571298541
 31
0.0
 11
-232.4814329477619
 21
89.47637270854472
 31
0.0
 11
-232.4823770999812
 21
89.52173831036829
 31
0.0
 11
-232.4843276129217
 21
89.59976444744649
 31
0.0
 11
-232.4865294649631
 21
89.66972488201863
 31
0.0
 11
-232.4889738680654
 21
89.73149789517352
 31
0.0
 11
-232.4916520341888
 21
89.78496176800003
 31
0.0
 11
-232.4935538446857
 21
89.81579269201228
 31
0.0
 11
-232.495783213179
 21
89.8456895185935
 31
0.0
 11
-232.4983550692463
 21
89.87302783504963
 31
0.0
 11
-232.5012843424651
 21
89.8961832286866
 31
0.0
 11
-232.5045859624127
 21
89.91353128681034
 31
0.0
 11
-232.507420860202
 21
89.9219646468551
 31
0.0
 11
-232.5106220315053
 21
89.92511669304135
 31
0.0
  0
SPLINE
  5
1AD
330
1F
100
AcDbEntity
  8
0
  6
Continuous
 62
     7
100
AcDbSpline
210
0.0
220
0.0
230
1.0
 70
     8
 71
     3
 72
    11
 73
     7
 74
     5
 42
0.000000001
 43
0.0000000001
 44
0.00000001
 40
0.0
 40
0.0
 40
0.0
 40
0.0
 40
0.5646793911073476
 40
1.070060581168314
 40
1.643167485415236
 40
2.140121157583071
 40
2.140121157583071
 40
2.140121157583071
 40
2.140121157583071
 10
-230.9839235047105
 20
91.42488672527465
 30
0.0
 10
-231.1181855015166
 20
91.29296660599479
 30
0.0
 10
-231.372610363379
 20
91.0429795941127
 30
0.0
 10
-231.7633228049357
 20
90.65912582022409
 30
0.0
 10
-232.1379500050163
 20
90.29111209464412
 30
0.0
 10
-232.3924350158349
 20
90.04118631615604
 30
0.0
 10
-232.5106220315053
 20
89.92511669304135
 30
0.0
 11
-230.9839235047105
 21
91.42488672527465
 31
0.0
 11
-231.38671345132
 21
91.02913039411744
 31
0.0
 11
-231.7472217678811
 21
90.67494978911704
 31
0.0
 11
-232.1560681774953
 21
90.2733328857844
 31
0.0
 11
-232.5106220315053
 21
89.92511669304135
 31
0.0
  0
SPLINE
  5
1AE
330
1F
100
AcDbEntity
  8
0
  6
Continuous
 62
     7
100
AcDbSpline
210
0.0
220
0.0
230
1.0
 70
     8
 71
     3
 72
     9
 73
     5
 74
     3
 42
0.000000001
 43
0.0000000001
 44
0.00000001
 40
0.0
 40
0.0
 40
0.0
 40
0.0
 40
0.0014519825912556
 40
0.0027325677108644
 40
0.0027325677108644
 40
0.0027325677108644
 40
0.0027325677108644
 10
-230.4351970658664
 20
99.028105928801
 30
0.0
 10
-230.4356687785769
 20
99.02799092289511
 30
0.0
 10
-230.4365565245239
 20
99.02777450653528
 30
0.0
 10
-230.4374693626743
 20
99.02774420496213
 30
0.0
 10
-230.4378971542299
 20
99.02773001382333
 30
0.0
 11
-230.4351970658664
 21
99.028105928801
 31
0.0
 11
-230.4366192908024
 21
99.02781347081618
 31
0.0
 11
-230.4378971542299
 21
99.02773001382333
 31
0.0
  0
SPLINE
  5
1AF
330
1F
100
AcDbEntity
  8
0
  6
Continuous
 62
     7
100
AcDbSpline
210
0.0
220
0.0
230
1.0
 70
     8
 71
     3
 72
     9
 73
     5
 74
     3
 42
0.000000001
 43
0.0000000001
 44
0.00000001
 40
0.0
 40
0.0
 40
0.0
 40
0.0
 40
0.0014519825913293
 40
0.0027325677111514
 40
0.0027325677111514
 40
0.0027325677111514
 40
0.0027325677111514
 10
-229.4870744009264
 20
97.528105928801
 30
0.0
 10
-229.4875461136368
 20
97.52799092289501
 30
0.0
 10
-229.488433859584
 20
97.52777450653505
 30
0.0
 10
-229.4893466977344
 20
97.52774420496175
 30
0.0
 10
-229.4897744892901
 20
97.52773001382288
 30
0.0
 11
-229.4870744009264
 21
97.528105928801
 31
0.0
 11
-229.4884966258624
 21
97.52781347081596
 31
0.0
 11
-229.4897744892901
 21
97.52773001382288
 31
0.0
  0
SPLINE
  5
1B0
330
1F
100
AcDbEntity
  8
0
  6
Continuous
 62
     7
100
AcDbSpline
210
0.0
220
0.0
230
1.0
 70
     8
 71
     3
 72
     9
 73
     5
 74
     3
 42
0.000000001
 43
0.0000000001
 44
0.00000001
 40
0.0
 40
0.0
 40
0.0
 40
0.0
 40
0.0014519825912244
 40
0.0027325677109503
 40
0.0027325677109503
 40
0.0027325677109503
 40
0.0027325677109503
 10
-230.4875622606512
 20
96.02810592880145
 30
0.0
 10
-230.4880339733616
 20
96.02799092289538
 30
0.0
 10
-230.4889217193086
 20
96.02777450653521
 30
0.0
 10
-230.4898345574591
 20
96.02774420496218
 30
0.0
 10
-230.4902623490147
 20
96.02773001382333
 30
0.0
 11
-230.4875622606512
 21
96.02810592880145
 31
0.0
 11
-230.4889844855871
 21
96.02781347081624
 31
0.0
 11
-230.4902623490147
 21
96.02773001382333
 31
0.0
  0
SPLINE
  5
1B1
330
1F
100
AcDbEntity
  8
0
  6
Continuous
 62
     7
100
AcDbSpline
210
0.0
220
0.0
230
1.0
 70
     8
 71
     3
 72
     9
 73
     5
 74
     3
 42
0.000000001
 43
0.0000000001
 44
0.00000001
 40
0.0
 40
0.0
 40
0.0
 40
0.0
 40
0.0014519825912244
 40
0.0027325677110638
 40
0.0027325677110638
 40
0.0027325677110638
 40
0.0027325677110638
 10
-229.5394395957112
 20
94.528105928801
 30
0.0
 10
-229.5399113084216
 20
94.52799092289493
 30
0.0
 10
-229.5407990543686
 20
94.52777450653478
 30
0.0
 10
-229.5417118925192
 20
94.52774420496169
 30
0.0
 10
-229.5421396840748
 20
94.52773001382288
 30
0.0
 11
-229.5394395957112
 21
94.528105928801
 31
0.0
 11
-229.5408618206471
 21
94.52781347081579
 31
0.0
 11
-229.5421396840748
 21
94.52773001382288
 31
0.0
  0
SPLINE
  5
1B2
330
1F
100
AcDbEntity
  8
0
  6
Continuous
 62
     7
100
AcDbSpline
210
0.0
220
0.0
230
1.0
 70
     8
 71
     3
 72
    10
 73
     6
 74
     4
 42
0.000000001
 43
0.0000000001
 44
0.00000001
 40
0.0
 40
0.0
 40
0.0
 40
0.0
 40
0.0942454974005954
 40
0.1533631992611947
 40
0.1778420264976776
 40
0.1778420264976776
 40
0.1778420264976776
 40
0.1778420264976776
 10
-230.4522964342964
 20
93.15948836431166
 30
0.0
 10
-230.4722622618654
 20
93.13535838613134
 30
0.0
 10
-230.5047520992751
 20
93.09609228918319
 30
0.0
 10
-230.5416475446747
 20
93.04877219045545
 30
0.0
 10
-230.5646489915623
 20
93.03288427584485
 30
0.0
 10
-230.5713843048495
 20
93.02823196495514
 30
0.0
 11
-230.4522964342964
 21
93.15948836431166
 31
0.0
 11
-230.5119398102961
 21
93.08651658165071
 31
0.0
 11
-230.5516635377956
 21
93.04273384024816
 31
0.0
 11
-230.5713843048495
 21
93.02823196495514
 31
0.0
  0
SPLINE
  5
1B3
330
1F
100
AcDbEntity
  8
0
  6
Continuous
 62
     7
100
AcDbSpline
210
0.0
220
0.0
230
1.0
 70
     8
 71
     3
 72
    73
 73
    69
 74
    67
 42
0.000000001
 43
0.0000000001
 44
0.00000001
 40
0.0
 40
0.0
 40
0.0
 40
0.0
 40
0.003600317099844
 40
0.0107261539753882
 40
0.023173206811967
 40
0.0509546355017174
 40
0.0898899672899728
 40
0.1398901437480472
 40
0.2008240911074681
 40
0.2725448989234529
 40
0.3548983802816742
 40
0.4477265439037127
 40
0.5508692196913878
 40
0.6641649023929902
 40
0.7862757560768511
 40
0.9173432229756799
 40
1.05705445071519
 40
1.205096270946626
 40
1.361155285575199
 40
1.524917926661749
 40
1.696070499184438
 40
1.874299212322579
 40
2.059290202867169
 40
2.201254087270366
 40
2.339179878704091
 40
2.47228857331724
 40
2.599801097448209
 40
2.720938317527851
 40
2.834921048318556
 40
2.940970059833932
 40
3.047964529473478
 40
3.164680359194223
 40
3.290733835044803
 40
3.425741279593212
 40
3.569319054637911
 40
3.721083564111116
 40
3.880651257215499
 40
4.199695673604201
 40
4.515755574739074
 40
4.827134498352677
 40
5.132782258098248
 40
5.430780137571584
 40
5.719499909359773
 40
5.832579462466758
 40
5.954602236338674
 40
6.084063114425438
 40
6.219457114444859
 40
6.359279421674923
 40
6.502025432991902
 40
6.641759871181197
 40
6.774620327926056
 40
6.900404925110713
 40
7.018911934883897
 40
7.129939830505575
 40
7.215630265731087
 40
7.304926040188543
 40
7.395021246291928
 40
7.483111927321429
 40
7.566397424584067
 40
7.609498387920524
 40
7.651970144263348
 40
7.692318821324603
 40
7.729056613169784
 40
7.760708375706545
 40
7.785830415317098
 40
7.798519252148638
 40
7.807483688430175
 40
7.812445388378286
 40
7.812445388378286
 40
7.812445388378286
 40
7.812445388378286
 10
-231.1200651721681
 20
83.62533582027994
 30
0.0
 10
-231.1189487612738
 20
83.62585189458548
 30
0.0
 10
-231.1156227128551
 20
83.62738937952217
 30
0.0
 10
-231.1126455826521
 20
83.63514746312642
 30
0.0
 10
-231.1076664036352
 20
83.64973201635281
 30
0.0
 10
-231.1025783310793
 20
83.6759580719356
 30
0.0
 10
-231.0965492615817
 20
83.71425093145872
 30
0.0
 10
-231.0904787668537
 20
83.76390231074637
 30
0.0
 10
-231.0841985347369
 20
83.82444306262931
 30
0.0
 10
-231.0778219221951
 20
83.89583755562037
 30
0.0
 10
-231.0713437058139
 20
83.97788160469989
 30
0.0
 10
-231.0647931267059
 20
84.07042645211514
 30
0.0
 10
-231.0581846103551
 20
84.17330359372428
 30
0.0
 10
-231.0515585144452
 20
84.28595917249974
 30
0.0
 10
-231.0449398605869
 20
84.40793807035375
 30
0.0
 10
-231.0383534518757
 20
84.53873582048485
 30
0.0
 10
-231.0318063616807
 20
84.67818929064453
 30
0.0
 10
-231.0253137658627
 20
84.82598430484012
 30
0.0
 10
-231.0188906628571
 20
84.98180664225532
 30
0.0
 10
-231.0125519613591
 20
85.14534206948515
 30
0.0
 10
-231.0063124871226
 20
85.31627633990377
 30
0.0
 10
-231.0001870397118
 20
85.49429519780402
 30
0.0
 10
-230.9947251812288
 20
85.66260123122416
 30
0.0
 10
-230.9899472889746
 20
85.81748782092974
 30
0.0
 10
-230.9858802688206
 20
85.95509389191228
 30
0.0
 10
-230.9821127331573
 20
86.08788949005067
 30
0.0
 10
-230.978642095002
 20
86.2150949888806
 30
0.0
 10
-230.9754657395102
 20
86.3359307583487
 30
0.0
 10
-230.9725810544838
 20
86.4496171680515
 30
0.0
 10
-230.969906443907
 20
86.55859309987542
 30
0.0
 10
-230.9672956822959
 20
86.66848187208446
 30
0.0
 10
-230.9646208008618
 20
86.78503912178385
 30
0.0
 10
-230.9618400354262
 20
86.91093401457852
 30
0.0
 10
-230.9589841578022
 20
87.04578336149439
 30
0.0
 10
-230.9560839457279
 20
87.18920397314533
 30
0.0
 10
-230.9531701801857
 20
87.3408126630885
 30
0.0
 10
-230.9493528499465
 20
87.55090355839067
 30
0.0
 10
-230.9449659159851
 20
87.81575812078135
 30
0.0
 10
-230.9404175550975
 20
88.13121998581222
 30
0.0
 10
-230.9366114001908
 20
88.4422258119328
 30
0.0
 10
-230.9335663679197
 20
88.74721907214911
 30
0.0
 10
-230.9312992130614
 20
89.04466584913015
 30
0.0
 10
-230.9301079621073
 20
89.27792884427987
 30
0.0
 10
-230.9295544951869
 20
89.45253536240321
 30
0.0
 10
-230.9293151992374
 20
89.5740562299244
 30
0.0
 10
-230.9292376040946
 20
89.70301546909167
 30
0.0
 10
-230.9293659332466
 20
89.8379078648305
 30
0.0
 10
-230.9297443405443
 20
89.97722820580745
 30
0.0
 10
-230.9304098696024
 20
90.11799432703894
 30
0.0
 10
-230.9313789465684
 20
90.25643803747906
 30
0.0
 10
-230.9326423955989
 20
90.38922534409019
 30
0.0
 10
-230.9341872036664
 20
90.51493338702481
 30
0.0
 10
-230.9360089201361
 20
90.63335941799505
 30
0.0
 10
-230.9379917092432
 20
90.73841607743817
 30
0.0
 10
-230.940140429082
 20
90.83373008628527
 30
0.0
 10
-230.9424788862729
 20
90.92205987731639
 30
0.0
 10
-230.9452861503284
 20
91.01117678391407
 30
0.0
 10
-230.9486023920355
 20
91.09827134332988
 30
0.0
 10
-230.9519485963566
 20
91.16968740715262
 30
0.0
 10
-230.9551427828615
 20
91.22588231553382
 30
0.0
 10
-230.957899219093
 20
91.26776923160789
 30
0.0
 10
-230.9610167846736
 20
91.3074910932917
 30
0.0
 10
-230.9644388967678
 20
91.34360994565951
 30
0.0
 10
-230.9683245542173
 20
91.37445057678352
 30
0.0
 10
-230.9718984112377
 20
91.39755719123133
 30
0.0
 10
-230.9760402422692
 20
91.41226855932004
 30
0.0
 10
-230.9784790041132
 20
91.4214259335613
 30
0.0
 10
-230.9824932761131
 20
91.42397759617174
 30
0.0
 10
-230.9839235047105
 20
91.42488672527465
 30
0.0
 11
-231.1200651721681
 21
83.62533582027994
 31
0.0
 11
-231.116935416863
 21
83.62711539819095
 31
0.0
 11
-231.113389735229
 21
83.63329647336906
 31
0.0
 11
-231.1094361968842
 21
83.64509895805544
 31
0.0
 11
-231.1034411918405
 21
83.6722258389863
 31
0.0
 11
-231.0973108925127
 21
83.7106755395076
 31
0.0
 11
-231.0910596194092
 21
83.76028339383208
 31
0.0
 11
-231.0847016930384
 21
83.82088473617246
 31
0.0
 11
-231.0782514339087
 21
83.8923149007414
 31
0.0
 11
-231.0717231625286
 21
83.97440922175164
 31
0.0
 11
-231.0651311994064
 21
84.0670030334158
 31
0.0
 11
-231.0584898650506
 21
84.16993166994665
 31
0.0
 11
-231.0518134799696
 21
84.28303046555688
 31
0.0
 11
-231.0451779777536
 21
84.40496089925209
 31
0.0
 11
-231.0385701690033
 21
84.53586169260838
 31
0.0
 11
-231.0320046365846
 21
84.67541856593853
 31
0.0
 11
-231.0254959633634
 21
84.82331723955538
 31
0.0
 11
-231.0190587322057
 21
84.9792434337718
 31
0.0
 11
-231.012707525977
 21
85.1428828689005
 31
0.0
 11
-231.0064569275434
 21
85.31392126525435
 31
0.0
 11
-231.0003215197708
 21
85.4920443431462
 31
0.0
 11
-230.9943158855249
 21
85.67693782288883
 31
0.0
 11
-230.9899367681758
 21
85.81883415037107
 31
0.0
 11
-230.9858605219024
 21
85.95669969395615
 31
0.0
 11
-230.9820844503919
 21
86.08975481718502
 31
0.0
 11
-230.9786058573314
 21
86.21721988359862
 31
0.0
 11
-230.9754220464081
 21
86.3383152567379
 31
0.0
 11
-230.9725303213092
 21
86.45226130014377
 31
0.0
 11
-230.9699279857216
 21
86.55827837735718
 31
0.0
 11
-230.9673864484396
 21
86.66524265685653
 31
0.0
 11
-230.9647083158992
 21
86.78192775647949
 31
0.0
 11
-230.9619243978327
 21
86.90795048668218
 31
0.0
 11
-230.9590655039726
 21
87.04292765792084
 31
0.0
 11
-230.9561624440512
 21
87.18647608065164
 31
0.0
 11
-230.953246027801
 21
87.3382125653307
 31
0.0
 11
-230.9503470649543
 21
87.4977539224143
 31
0.0
 11
-230.9450640278279
 21
87.81675459457213
 31
0.0
 11
-230.9405107256025
 21
88.13278169505196
 31
0.0
 11
-230.9367060860284
 21
88.44413737348226
 31
0.0
 11
-230.933662748328
 21
88.74976998111389
 31
0.0
 11
-230.931402536775
 21
89.04775928854892
 31
0.0
 11
-230.9299429401531
 21
89.3364753704533
 31
0.0
 11
-230.9295857209014
 21
89.44955435916258
 31
0.0
 11
-230.9293470791055
 21
89.57157689949761
 31
0.0
 11
-230.9292715628928
 21
89.70103775537116
 31
0.0
 11
-230.9294037203912
 21
89.83643169069592
 31
0.0
 11
-230.9297880997283
 21
89.9762534693846
 31
0.0
 11
-230.9304692490316
 21
90.11899785534992
 31
0.0
 11
-230.9314550383517
 21
90.25872881605771
 31
0.0
 11
-230.9327279414612
 21
90.39158317479094
 31
0.0
 11
-230.9342837953982
 21
90.5173581491016
 31
0.0
 11
-230.9361184372009
 21
90.63585095654165
 31
0.0
 11
-230.9382277039075
 21
90.74685881466316
 31
0.0
 11
-230.9401682822678
 21
90.83252727340518
 31
0.0
 11
-230.9425462285967
 21
90.92179137975882
 31
0.0
 11
-230.9454068625818
 21
91.01184115993762
 31
0.0
 11
-230.9487955039103
 21
91.09986664015513
 31
0.0
 11
-230.9527574722697
 21
91.18305784662483
 31
0.0
 11
-230.9552192509121
 21
91.22608844827054
 31
0.0
 11
-230.9580368651531
 21
91.26846663991687
 31
0.0
 11
-230.961224896831
 21
91.30868917320034
 31
0.0
 11
-230.9647979277841
 21
91.34525279975766
 31
0.0
 11
-230.9687705398508
 21
91.37665427122543
 31
0.0
 11
-230.9731573148692
 21
91.40139033924028
 31
0.0
 11
-230.9763929663106
 21
91.4136596965756
 31
0.0
 11
-230.9799804073288
 21
91.4218750104637
 31
0.0
 11
-230.9839235047105
 21
91.42488672527465
 31
0.0
  0
SPLINE
  5
1B4
330
1F
100
AcDbEntity
  8
0
  6
Continuous
 62
     7
100
AcDbSpline
210
0.0
220
0.0
230
1.0
 70
     8
 71
     3
 72
    19
 73
    15
 74
    13
 42
0.000000001
 43
0.0000000001
 44
0.00000001
 40
0.0
 40
0.0
 40
0.0
 40
0.0
 40
0.0817515216027981
 40
0.1898851355574281
 40
0.3901497450305899
 40
0.6928608252482511
 40
1.109262860362903
 40
1.44758887696453
 40
1.918133872166684
 40
2.421002800821915
 40
2.977896384076488
 40
3.553180747232573
 40
4.534388850235227
 40
5.525375183562073
 40
5.525375183562073
 40
5.525375183562073
 40
5.525375183562073
 10
-105.6482705530853
 20
102.0269851214492
 30
0.0
 10
-105.6210227697646
 20
102.0273709148547
 30
0.0
 10
-105.5577340515868
 20
102.028267017408
 30
0.0
 10
-105.4276930975945
 20
102.0298025101746
 30
0.0
 10
-105.224000302646
 20
102.0318616181328
 30
0.0
 10
-104.9175506426597
 20
102.0343154861935
 30
0.0
 10
-104.5650770182131
 20
102.0364276355208
 30
0.0
 10
-104.1566564791085
 20
102.038215477987
 30
0.0
 10
-103.7194114556753
 20
102.0394802129798
 30
0.0
 10
-103.2093092348794
 20
102.0401627371225
 30
0.0
 10
-102.6642933349947
 20
102.0400565047481
 30
0.0
 10
-101.9598324152209
 20
102.0387732920562
 30
0.0
 10
-101.1106767359015
 20
102.0356120091568
 30
0.0
 10
-100.4532970516966
 20
102.0306162071628
 30
0.0
 10
-100.1229775502548
 20
102.0281059288012
 30
0.0
 11
-105.6482705530853
 21
102.0269851214492
 31
0.0
 11
-105.5665268385296
 21
102.0281149278391
 31
0.0
 11
-105.4584010817785
 21
102.0294184378047
 31
0.0
 11
-105.2581468845765
 21
102.0314605704334
 31
0.0
 11
-104.9554458479985
 21
102.0339264450943
 31
0.0
 11
-104.5390515199967
 21
102.0364599117284
 31
0.0
 11
-104.2007287958187
 21
102.0379524980496
 31
0.0
 11
-103.7301858203562
 21
102.03933117643
 31
0.0
 11
-103.2273173589634
 21
102.0400167042611
 31
0.0
 11
-102.6704237860795
 21
102.0399091650888
 31
0.0
 11
-102.0951403345467
 21
102.0388849972579
 31
0.0
 11
-101.1139399485065
 21
102.0349933314237
 31
0.0
 11
-100.1229775502548
 21
102.0281059288012
 31
0.0
  0
SPLINE
  5
1B5
330
1F
100
AcDbEntity
  8
0
  6
Continuous
 62
     7
100
AcDbSpline
210
0.0
220
0.0
230
1.0
 70
     8
 71
     3
 72
    20
 73
    16
 74
    14
 42
0.000000001
 43
0.0000000001
 44
0.00000001
 40
0.0
 40
0.0
 40
0.0
 40
0.0
 40
0.0817515216403616
 40
0.1898851355537214
 40
0.4132598293614431
 40
0.6928608267413217
 40
1.047479107222208
 40
1.447588886651118
 40
1.984138987338234
 40
2.421002804711998
 40
2.977896387774113
 40
3.553180751143261
 40
4.107207427469753
 40
4.774885981426623
 40
5.5253755768672
 40
5.5253755768672
 40
5.5253755768672
 40
5.5253755768672
 10
-105.6482705530785
 20
99.02698512144924
 30
0.0
 10
-105.6210227696921
 20
99.02737091355714
 30
0.0
 10
-105.5577340513918
 20
99.02826701308146
 30
0.0
 10
-105.4199902683577
 20
99.0298934983282
 30
0.0
 10
-105.2162971788044
 20
99.03192632042561
 30
0.0
 10
-104.9304413754566
 20
99.03419874545914
 30
0.0
 10
-104.58567138969
 20
99.03632262854332
 30
0.0
 10
-104.1552494926039
 20
99.03825427817915
 30
0.0
 10
-103.6974097516777
 20
99.03952407889943
 30
0.0
 10
-103.1873075166126
 20
99.04015967720699
 30
0.0
 10
-102.6642933886831
 20
99.04005065555376
 30
0.0
 10
-102.1022257913962
 20
99.03905470948197
 30
0.0
 10
-101.5032325552893
 20
99.03702972466932
 30
0.0
 10
-100.8458415825962
 20
99.03377650200369
 30
0.0
 10
-100.3731331760372
 20
99.03006829269049
 30
0.0
 10
-100.1229775502548
 20
99.02810592880122
 30
0.0
 11
-105.6482705530785
 21
99.02698512144924
 31
0.0
 11
-105.5665268385258
 21
99.02811492783908
 31
0.0
 11
-105.4584010817785
 21
99.0294184378047
 31
0.0
 11
-105.2350377575395
 21
99.0316721487716
 31
0.0
 11
-104.9554458479985
 21
99.03392644509428
 31
0.0
 11
-104.6008344532261
 21
99.0361363197829
 31
0.0
 11
-104.2007287958187
 21
99.03795249804956
 31
0.0
 11
-103.6641808287905
 21
99.03946564861081
 31
0.0
 11
-103.2273173589634
 21
99.04001670426113
 31
0.0
 11
-102.6704237862783
 21
99.03990916508904
 31
0.0
 11
-102.0951403345467
 21
99.03888499725794
 31
0.0
 11
-101.5411167754748
 21
99.03702646928934
 31
0.0
 11
-100.8734469634564
 21
99.03360967253063
 31
0.0
 11
-100.1229775502548
 21
99.02810592880122
 31
0.0
  0
SPLINE
  5
1B6
330
1F
100
AcDbEntity
  8
0
  6
Continuous
 62
     7
100
AcDbSpline
210
0.0
220
0.0
230
1.0
 70
     8
 71
     3
 72
    18
 73
    14
 74
    12
 42
0.000000001
 43
0.0000000001
 44
0.00000001
 40
0.0
 40
0.0
 40
0.0
 40
0.0
 40
0.0817515068183666
 40
0.1898851348933222
 40
0.5190517259304075
 40
0.9393502840815073
 40
1.447588748179193
 40
1.98413884873952
 40
2.421002666234587
 40
3.047781951372871
 40
3.553180607941129
 40
4.534388710478129
 40
5.5253750442708
 40
5.5253750442708
 40
5.5253750442708
 40
5.5253750442708
 10
-105.6482705529353
 20
96.02698515926262
 30
0.0
 10
-105.6210227742558
 20
96.02737093966076
 30
0.0
 10
-105.5577340556331
 20
96.02826701208228
 30
0.0
 10
-105.3847287394378
 20
96.03030982130898
 30
0.0
 10
-105.0988747008291
 20
96.03299662522463
 30
0.0
 10
-104.6796496183264
 20
96.03586613905507
 30
0.0
 10
-104.1912922556978
 20
96.03815417970442
 30
0.0
 10
-103.6974097504619
 20
96.0395244600739
 30
0.0
 10
-103.1640123097609
 20
96.04018739205893
 30
0.0
 10
-102.6409980513307
 20
96.04003292586737
 30
0.0
 10
-101.9365373165698
 20
96.0386850371925
 30
0.0
 10
-101.1106767268137
 20
96.03561249412644
 30
0.0
 10
-100.4532970487606
 20
96.03061636934792
 30
0.0
 10
-100.1229775502548
 20
96.02810592880122
 30
0.0
 11
-105.6482705529353
 21
96.02698515926262
 31
0.0
 11
-105.5665268527065
 21
96.02811493238826
 31
0.0
 11
-105.4584010817785
 21
96.0294184378047
 31
0.0
 11
-105.1292497512288
 21
96.03258801871331
 31
0.0
 11
-104.7089614795642
 21
96.03552854264834
 31
0.0
 11
-104.2007287958187
 21
96.03795249804956
 31
0.0
 11
-103.6641808289148
 21
96.03946564861063
 31
0.0
 11
-103.2273173589634
 21
96.04001670426113
 31
0.0
 11
-102.600538100491
 21
96.03983382180837
 31
0.0
 11
-102.0951403345467
 21
96.03888499725794
 31
0.0
 11
-101.1139399489735
 21
96.03499333142632
 31
0.0
 11
-100.1229775502548
 21
96.02810592880122
 31
0.0
  0
SPLINE
  5
1B7
330
1F
100
AcDbEntity
  8
0
  6
Continuous
 62
     7
100
AcDbSpline
210
0.0
220
0.0
230
1.0
 70
     8
 71
     3
 72
     9
 73
     5
 74
     3
 42
0.000000001
 43
0.0000000001
 44
0.00000001
 40
0.0
 40
0.0
 40
0.0
 40
0.0
 40
0.5141076453277355
 40
1.030722612341884
 40
1.030722612341884
 40
1.030722612341884
 40
1.030722612341884
 10
-98.93243789498919
 20
105.0282319649546
 30
0.0
 10
-99.10406018189684
 20
105.0233697688426
 30
0.0
 10
-99.44814176219501
 20
105.0136216436323
 30
0.0
 10
-99.78597464558754
 20
104.9476011766514
 30
0.0
 10
-99.95530198972764
 20
104.9145106330169
 30
0.0
 11
-98.93243789498919
 21
105.0282319649546
 31
0.0
 11
-99.4457501719435
 21
104.9996456417
 31
0.0
 11
-99.95530198972764
 21
104.9145106330169
 31
0.0
  0
SPLINE
  5
1B8
330
1F
100
AcDbEntity
  8
0
  6
Continuous
 62
     7
100
AcDbSpline
210
0.0
220
0.0
230
1.0
 70
     8
 71
     3
 72
    18
 73
    14
 74
    12
 42
0.000000001
 43
0.0000000001
 44
0.00000001
 40
0.0
 40
0.0
 40
0.0
 40
0.0
 40
0.4944090052367384
 40
1.157527644801648
 40
1.972350716872963
 40
2.478032959942787
 40
3.105282867098998
 40
3.653309232158404
 40
4.07861921125872
 40
4.808180433377471
 40
5.336101940499962
 40
5.570085294452833
 40
5.728558042589091
 40
5.728558042589091
 40
5.728558042589091
 40
5.728558042589091
 10
-99.12297755025483
 20
100.5281059288012
 30
0.0
 10
-99.28777520068155
 20
100.5294385989865
 30
0.0
 10
-99.6736052203802
 20
100.5325586767433
 30
0.0
 10
-100.3310452341077
 20
100.536339719376
 30
0.0
 10
-100.9922491213268
 20
100.5388135552318
 30
0.0
 10
-101.641499919508
 20
100.5400273991018
 30
0.0
 10
-102.2018197289949
 20
100.540201320547
 30
0.0
 10
-102.7353481182817
 20
100.5394423511361
 30
0.0
 10
-103.3029786104478
 20
100.5377788139639
 30
0.0
 10
-103.8639012348603
 20
100.5347739873778
 30
0.0
 10
-104.361045345791
 20
100.5310016138791
 30
0.0
 10
-104.6678071695159
 20
100.5265434774735
 30
0.0
 10
-104.7986222128587
 20
100.5255270802571
 30
0.0
 10
-104.8514449853488
 20
100.5251166549353
 30
0.0
 11
-99.12297755025483
 21
100.5281059288012
 31
0.0
 11
-99.61737169248805
 21
100.5319395480465
 31
0.0
 11
-100.2804788042919
 21
100.535849597416
 31
0.0
 11
-101.0952962211032
 21
100.5388853992099
 31
0.0
 11
-101.6009775738139
 21
100.5398343381979
 31
0.0
 11
-102.2282274546261
 21
100.5400161506701
 31
0.0
 11
-102.7762532544633
 21
100.5392290567239
 31
0.0
 11
-103.201561308381
 21
100.5379493702291
 31
0.0
 11
-103.9311123708382
 21
100.5340991625674
 31
0.0
 11
-104.4590130658431
 21
100.5294115290821
 31
0.0
 11
-104.6929782068749
 21
100.5264921612217
 31
0.0
 11
-104.8514449853488
 21
100.5251166549353
 31
0.0
  0
SPLINE
  5
1B9
330
1F
100
AcDbEntity
  8
0
  6
Continuous
 62
     7
100
AcDbSpline
210
0.0
220
0.0
230
1.0
 70
     8
 71
     3
 72
    17
 73
    13
 74
    11
 42
0.000000001
 43
0.0000000001
 44
0.00000001
 40
0.0
 40
0.0
 40
0.0
 40
0.0
 40
1.09673679178932
 40
1.972350276662106
 40
3.075580050031565
 40
4.078618124845272
 40
4.416839529652493
 40
4.83311938639469
 40
5.051789063080392
 40
5.336101356253566
 40
5.5700847102109
 40
5.728557458340934
 40
5.728557458340934
 40
5.728557458340934
 40
5.728557458340934
 10
-99.12297755025483
 20
103.5281059288015
 30
0.0
 10
-99.48854654459922
 20
103.5308508489142
 30
0.0
 10
-100.1459787677486
 20
103.5357872466248
 30
0.0
 10
-101.1711672940421
 20
103.5394798481339
 30
0.0
 10
-102.1651281889627
 20
103.5405880972539
 30
0.0
 10
-102.979958142888
 20
103.5389906892773
 30
0.0
 10
-103.5657990020989
 20
103.5364202079761
 30
0.0
 10
-103.8901839806247
 20
103.5344950514087
 30
0.0
 10
-104.1965948457778
 20
103.5320633779477
 30
0.0
 10
-104.4422407664091
 20
103.5298621465215
 30
0.0
 10
-104.6678071001578
 20
103.5265376018831
 30
0.0
 10
-104.7986221929097
 20
103.5255253902002
 30
0.0
 10
-104.8514449853488
 20
103.5251166549353
 30
0.0
 11
-99.12297755025483
 21
103.5281059288015
 31
0.0
 11
-100.2196891019761
 21
103.5355465535057
 31
0.0
 11
-101.0952962211046
 21
103.5388853992099
 31
0.0
 11
-102.198525397663
 21
103.5400329664319
 31
0.0
 11
-103.2015613083823
 21
103.5379493702291
 31
0.0
 11
-103.5397794171607
 21
103.5364561964112
 31
0.0
 11
-103.9560515607219
 21
103.5339221027089
 31
0.0
 11
-104.174714492007
 21
103.5322045504673
 31
0.0
 11
-104.4590130658431
 21
103.5294115290821
 31
0.0
 11
-104.692978206879
 21
103.5264921612217
 31
0.0
 11
-104.8514449853488
 21
103.5251166549353
 31
0.0
  0
SPLINE
  5
1BA
330
1F
100
AcDbEntity
  8
0
  6
Continuous
 62
     7
100
AcDbSpline
210
0.0
220
0.0
230
1.0
 70
     8
 71
     3
 72
    17
 73
    13
 74
    11
 42
0.000000001
 43
0.0000000001
 44
0.00000001
 40
0.0
 40
0.0
 40
0.0
 40
0.0
 40
0.1578330769424807
 40
0.3653413961017402
 40
1.062025183984088
 40
2.034842335726607
 40
2.56427711224972
 40
3.270110252011263
 40
4.028314472459996
 40
4.70371877716812
 40
5.251269489027875
 40
5.87359911950917
 40
5.87359911950917
 40
5.87359911950917
 40
5.87359911950917
 10
-105.6677873239351
 20
104.902998755587
 30
0.0
 10
-105.6345792538899
 20
104.8618209727223
 30
0.0
 10
-105.5577114534164
 20
104.7665054027436
 30
0.0
 10
-105.2526589918768
 20
104.5762104196879
 30
0.0
 10
-104.6342184611955
 20
104.4269957833142
 30
0.0
 10
-103.901093703818
 20
104.3942711371713
 30
0.0
 10
-103.1651319480871
 20
104.4187511392448
 30
0.0
 10
-102.5027331997584
 20
104.4747955403074
 30
0.0
 10
-101.7952528061032
 20
104.5660629046714
 30
0.0
 10
-101.143556884733
 20
104.6733657889012
 30
0.0
 10
-100.5391057240219
 20
104.787647554215
 30
0.0
 10
-100.1580228588577
 20
104.8704585136265
 30
0.0
 10
-99.95530198972764
 20
104.9145106330169
 30
0.0
 11
-105.6677873239351
 21
104.902998755587
 31
0.0
 11
-105.5629239037019
 21
104.7850371283844
 31
0.0
 11
-105.3911562442209
 21
104.6686087313918
 31
0.0
 11
-104.7240603439868
 21
104.4677322566954
 31
0.0
 11
-103.7533309777569
 21
104.4040321229882
 31
0.0
 11
-103.2241573579815
 21
104.4206592860048
 31
0.0
 11
-102.5206795028426
 21
104.4782728983499
 31
0.0
 11
-101.7685690082509
 21
104.5742074788488
 31
0.0
 11
-101.1020151608896
 21
104.6831888691285
 31
0.0
 11
-100.5640671422839
 21
104.7852854487112
 31
0.0
 11
-99.95530198972764
 21
104.9145106330169
 31
0.0
  0
SPLINE
  5
1BB
330
1F
100
AcDbEntity
  8
0
  6
Continuous
 62
     7
100
AcDbSpline
210
0.0
220
0.0
230
1.0
 70
     8
 71
     3
 72
    20
 73
    16
 74
    14
 42
0.000000001
 43
0.0000000001
 44
0.00000001
 40
0.0
 40
0.0
 40
0.0
 40
0.0
 40
0.4944090051157437
 40
1.157527644688386
 40
1.972350716871883
 40
2.47803296008913
 40
3.105282867098457
 40
3.653309231880482
 40
4.078619211257824
 40
4.416840616098257
 40
4.833120472812912
 40
5.135900745568441
 40
5.336102457067023
 40
5.570085759977516
 40
5.728558152757532
 40
5.728558152757532
 40
5.728558152757532
 40
5.728558152757532
 10
-99.12297755025483
 20
97.52810592880122
 30
0.0
 10
-99.28777520062027
 20
97.52943859699401
 30
0.0
 10
-99.67360522023205
 20
97.5325586700861
 30
0.0
 10
-100.3310452344631
 20
97.53633976059321
 30
0.0
 10
-100.9922491196441
 20
97.53881339434714
 30
0.0
 10
-101.6414999236181
 20
97.5400277850361
 30
0.0
 10
-102.2018197104039
 20
97.54019955836156
 30
0.0
 10
-102.7353481718853
 20
97.53944745297267
 30
0.0
 10
-103.1725323321984
 20
97.53814791217468
 30
0.0
 10
-103.5657990141409
 20
97.53641985084201
 30
0.0
 10
-103.9182203378288
 20
97.53432735505864
 30
0.0
 10
-104.2246307370472
 20
97.53181900305765
 30
0.0
 10
-104.4702749168792
 20
97.52946525420198
 30
0.0
 10
-104.6678069162552
 20
97.52653473016018
 30
0.0
 10
-104.7986218998309
 20
97.52552499221278
 30
0.0
 10
-104.8514445844372
 20
97.52511725630247
 30
0.0
 11
-99.12297755025483
 21
97.52810592880122
 31
0.0
 11
-99.61737169236854
 21
97.53193954804563
 31
0.0
 11
-100.2804788041807
 21
97.5358495974154
 31
0.0
 11
-101.0952962211041
 21
97.53888539920992
 31
0.0
 11
-101.6009775739622
 21
97.53983433819806
 31
0.0
 11
-102.2282274546274
 21
97.54001615067013
 31
0.0
 11
-102.7762532541872
 21
97.53922905672458
 31
0.0
 11
-103.2015613083819
 21
97.53794937022907
 31
0.0
 11
-103.5397794171906
 21
97.53645619641108
 31
0.0
 11
-103.9560515607214
 21
97.53392210270887
 31
0.0
 11
-104.2588217766392
 21
97.53145432511687
 31
0.0
 11
-104.4590130658431
 21
97.52941152908205
 31
0.0
 11
-104.6929781567669
 21
97.52649223639249
 31
0.0
 11
-104.8514445844372
 21
97.52511725630247
 31
0.0
  0
SPLINE
  5
1BC
330
1F
100
AcDbEntity
  8
0
  6
Continuous
 62
     7
100
AcDbSpline
210
0.0
220
0.0
230
1.0
 70
     8
 71
     3
 72
     9
 73
     5
 74
     3
 42
0.000000001
 43
0.0000000001
 44
0.00000001
 40
0.0
 40
0.0
 40
0.0
 40
0.0
 40
0.5141076453277355
 40
1.030722612341884
 40
1.030722612341884
 40
1.030722612341884
 40
1.030722612341884
 10
-69.56596061867876
 20
105.0282319649546
 30
0.0
 10
-69.39433833177114
 20
105.0233697688426
 30
0.0
 10
-69.05025675147293
 20
105.0136216436323
 30
0.0
 10
-68.71242386808039
 20
104.9476011766514
 30
0.0
 10
-68.5430965239403
 20
104.9145106330169
 30
0.0
 11
-69.56596061867876
 21
105.0282319649546
 31
0.0
 11
-69.05264834172445
 21
104.9996456417
 31
0.0
 11
-68.5430965239403
 21
104.9145106330169
 31
0.0
  0
SPLINE
  5
1BD
330
1F
100
AcDbEntity
  8
0
  6
Continuous
 62
     2
100
AcDbSpline
210
0.0
220
0.0
230
1.0
 70
     8
 71
     3
 72
     9
 73
     5
 74
     3
 42
0.000000001
 43
0.0000000001
 44
0.00000001
 40
0.0
 40
0.0
 40
0.0
 40
0.0
 40
0.0017265691865576
 40
0.0034532114419701
 40
0.0034532114419701
 40
0.0034532114419701
 40
0.0034532114419701
 10
-177.6665257316148
 20
96.02511665493525
 30
0.0
 10
-177.6659502085505
 20
96.0251166799943
 30
0.0
 10
-177.664799138068
 20
96.02511675011337
 30
0.0
 10
-177.663648067631
 20
96.02511708090344
 30
0.0
 10
-177.6630725202366
 20
96.02511725630224
 30
0.0
 11
-177.6665257316148
 21
96.02511665493525
 31
0.0
 11
-177.664799162434
 21
96.02511680527688
 31
0.0
 11
-177.6630725202366
 21
96.02511725630224
 31
0.0
  0
SPLINE
  5
1BE
330
1F
100
AcDbEntity
  8
0
  6
Continuous
 62
     7
100
AcDbSpline
210
0.0
220
0.0
230
1.0
 70
     8
 71
     3
 72
     9
 73
     5
 74
     3
 42
0.000000001
 43
0.0000000001
 44
0.00000001
 40
0.0
 40
0.0
 40
0.0
 40
0.0
 40
0.5357417863049275
 40
1.074321477632371
 40
1.074321477632371
 40
1.074321477632371
 40
1.074321477632371
 10
-178.7581328560084
 20
93.02511665493525
 30
0.0
 10
-178.5792646583497
 20
93.03031014198035
 30
0.0
 10
-178.2205807729289
 20
93.04072464662411
 30
0.0
 10
-177.8689175179302
 20
93.11213098815678
 30
0.0
 10
-177.6926214187268
 20
93.1479284815638
 30
0.0
 11
-178.7581328560084
 21
93.02511665493525
 31
0.0
 11
-178.2232741606722
 21
93.05586463419799
 31
0.0
 11
-177.6926214187268
 21
93.1479284815638
 31
0.0
  0
ARC
  5
1BF
330
1F
100
AcDbEntity
  8
1
  6
Continuous
 62
     7
100
AcDbCircle
 10
-63.14827404425668
 20
94.52511665493525
 30
0.0
 40
0.4999999999999692
100
AcDbArc
 50
146.3099324740347
 51
213.690067525987
  0
ARC
  5
1C0
330
1F
100
AcDbEntity
  8
1
  6
Continuous
 62
     7
100
AcDbCircle
 10
-63.35012446941127
 20
96.02511665493525
 30
0.0
 40
0.5000000000001013
100
AcDbArc
 50
326.3099324740134
 51
33.69006752596488
  0
ARC
  5
1C1
330
1F
100
AcDbEntity
  8
1
  6
Continuous
 62
     7
100
AcDbCircle
 10
-63.14827404425668
 20
97.52511665493525
 30
0.0
 40
0.4999999999999692
100
AcDbArc
 50
146.3099324740347
 51
213.690067525987
  0
ARC
  5
1C2
330
1F
100
AcDbEntity
  8
1
  6
Continuous
 62
     7
100
AcDbCircle
 10
-63.35012446941127
 20
99.02511665493525
 30
0.0
 40
0.5000000000001013
100
AcDbArc
 50
326.3099324740134
 51
33.69006752596488
  0
ARC
  5
1C3
330
1F
100
AcDbEntity
  8
1
  6
Continuous
 62
     7
100
AcDbCircle
 10
-63.14827404425668
 20
100.5251166549353
 30
0.0
 40
0.4999999999999141
100
AcDbArc
 50
146.3099324740442
 51
213.6900675259952
  0
ARC
  5
1C4
330
1F
100
AcDbEntity
  8
1
  6
Continuous
 62
     7
100
AcDbCircle
 10
-63.35012446941127
 20
102.0251166549353
 30
0.0
 40
0.5000000000001485
100
AcDbArc
 50
326.3099324740053
 51
33.6900675259554
  0
ARC
  5
1C5
330
1F
100
AcDbEntity
  8
1
  6
Continuous
 62
     7
100
AcDbCircle
 10
-63.14827404425668
 20
103.5251166549353
 30
0.0
 40
0.4999999999999141
100
AcDbArc
 50
146.3099324740442
 51
213.6900675259952
  0
ARC
  5
1C6
330
1F
100
AcDbEntity
  8
1
  6
Continuous
 62
     7
100
AcDbCircle
 10
-182.0887519450014
 20
150.0251166549348
 30
0.0
 40
3.000000000000113
100
AcDbArc
 50
10.00000000000367
 51
90.0
  0
ARC
  5
1C7
330
1F
100
AcDbEntity
  8
1
  6
Continuous
 62
     7
100
AcDbCircle
 10
-105.3501244694113
 20
103.5251166549353
 30
0.0
 40
0.5000000000001663
100
AcDbArc
 50
326.3099324740067
 51
33.69006752595404
  0
ARC
  5
1C8
330
1F
100
AcDbEntity
  8
1
  6
Continuous
 62
     7
100
AcDbCircle
 10
-105.1482740442567
 20
102.0251166549353
 30
0.0
 40
0.4999999999999495
100
AcDbArc
 50
146.3099324740469
 51
213.6900675259924
  0
ARC
  5
1C9
330
1F
100
AcDbEntity
  8
1
  6
Continuous
 62
     7
100
AcDbCircle
 10
-105.3501244694113
 20
100.5251166549353
 30
0.0
 40
0.5000000000001663
100
AcDbArc
 50
326.3099324740067
 51
33.69006752595404
  0
ARC
  5
1CA
330
1F
100
AcDbEntity
  8
1
  6
Continuous
 62
     7
100
AcDbCircle
 10
-105.1482740442567
 20
99.02511665493525
 30
0.0
 40
0.5000000000000047
100
AcDbArc
 50
146.3099324740374
 51
213.6900675259843
  0
ARC
  5
1CB
330
1F
100
AcDbEntity
  8
1
  6
Continuous
 62
     7
100
AcDbCircle
 10
-105.3501244694113
 20
97.52511665493525
 30
0.0
 40
0.500000000000119
100
AcDbArc
 50
326.3099324740148
 51
33.69006752596353
  0
ARC
  5
1CC
330
1F
100
AcDbEntity
  8
1
  6
Continuous
 62
     7
100
AcDbCircle
 10
-105.1482740442567
 20
96.02511665493525
 30
0.0
 40
0.5000000000000047
100
AcDbArc
 50
146.3099324740374
 51
213.6900675259843
  0
ARC
  5
1CD
330
1F
100
AcDbEntity
  8
1
  6
Continuous
 62
     7
100
AcDbCircle
 10
-105.3501244694113
 20
94.52511665493525
 30
0.0
 40
0.500000000000119
100
AcDbArc
 50
326.3099324740148
 51
33.69006752596353
  0
ARC
  5
1CE
102
{ACAD_REACTORS
330
215
102
}
330
1F
100
AcDbEntity
  8
1
  6
Continuous
 62
     4
100
AcDbCircle
 10
-198.500148590503
 20
133.3433571467173
 30
0.0
 40
0.3332168604675019
100
AcDbArc
 50
180.0
 51
299.9816393683466
  0
ARC
  5
1CF
102
{ACAD_REACTORS
330
215
102
}
330
1F
100
AcDbEntity
  8
1
  6
Continuous
 62
     4
100
AcDbCircle
 10
-198.500148590503
 20
137.7068761631527
 30
0.0
 40
0.3332168604672204
100
AcDbArc
 50
60.01836063170227
 51
180.0
  0
ARC
  5
1D0
102
{ACAD_REACTORS
330
213
102
}
330
1F
100
AcDbEntity
  8
1
  6
Continuous
 62
     4
100
AcDbCircle
 10
-203.4984014975306
 20
133.5366575135569
 30
0.0
 40
0.6664337209348901
100
AcDbArc
 50
180.0
 51
240.0183606310441
  0
ARC
  5
1D1
102
{ACAD_REACTORS
330
212
102
}
330
1F
100
AcDbEntity
  8
1
  6
Continuous
 62
     4
100
AcDbCircle
 10
-201.1658834742519
 20
135.8269384362213
 30
0.0
 40
0.1666084302398567
100
AcDbArc
 50
209.9999999990783
 51
329.9999999999931
  0
ARC
  5
1D2
102
{ACAD_REACTORS
330
212
102
}
330
1F
100
AcDbEntity
  8
1
  6
Continuous
 62
     4
100
AcDbCircle
 10
-199.8330160323793
 20
138.4687494257697
 30
0.0
 40
0.3332168604711967
100
AcDbArc
 50
0.0
 51
149.9999999999386
  0
ARC
  5
1D3
102
{ACAD_REACTORS
330
212
102
}
330
1F
100
AcDbEntity
  8
1
  6
Continuous
 62
     4
100
AcDbCircle
 10
-202.4987509161263
 20
138.4687494257697
 30
0.0
 40
0.3332168604711833
100
AcDbArc
 50
29.99999999966557
 51
180.0
  0
MTEXT
  5
1D4
330
1F
100
AcDbEntity
  8
1
 62
     7
100
AcDbMText
 10
-40.32369931125732
 20
10.06063942075605
 30
0.0
 40
4.5
 41
0.0
 71
     5
 72
     1
  1
1:1
  7
CONVERTER_11
 73
     1
 44
1.32052821128451
  0
MTEXT
  5
1D5
330
1F
100
AcDbEntity
  8
1
 62
     7
100
AcDbMText
 10
-152.7236993112573
 20
12.5
 30
0.0
 40
4.5
 41
0.0
 71
     4
 72
     1
  1
MAO 06 L25\Phood side entry M25
  7
CONVERTER_11
 73
     1
 44
0.90036014405762
  0
MTEXT
  5
1D6
330
1F
100
AcDbEntity
  8
1
 62
     7
100
AcDbMText
 10
-176.4
 20
16.26063942075598
 30
0.0
 40
3.0
 41
0.0
 71
     4
 72
     1
  1
14/12/06
  7
CONVERTER_11
 73
     1
 44
1.32052821128451
  0
MTEXT
  5
1D7
330
1F
100
AcDbEntity
  8
1
 62
     7
100
AcDbMText
 10
-176.4
 20
8.75
 30
0.0
 40
3.0
 41
0.0
 71
     4
 72
     1
  1
T.Tedeschi
  7
CONVERTER_11
 73
     1
 44
1.32052821128451
  0
MTEXT
  5
1D8
330
1F
100
AcDbEntity
  8
1
 62
     7
100
AcDbMText
 10
-172.9999999999999
 20
21.2566660576345
 30
0.0
 40
3.0
 41
0.0
 71
     8
 72
     1
  1
14/11/08
  7
CONVERTER_11
 73
     1
 44
1.32052821128451
  0
TEXT
  5
1D9
330
1F
100
AcDbEntity
  8
1
 62
     7
100
AcDbText
 10
-162.1999999999999
 20
21.2566660576345
 30
0.0
 40
3.0
  1
Heigth 70mm to 72mm
 41
1.2
  7
CONVERTER_11
100
AcDbText
  0
DIMENSION
  5
1E5
330
1F
100
AcDbEntity
  8
1
100
AcDbDimension
  2
*D3
 10
-155.2437249234383
 20
146.286274656032
 30
0.0
 11
-149.6262955670585
 21
134.5839463652139
 31
0.0
 70
    33
  1
<>
 71
     5
 42
-1.0
 53
-79.99999999999774
  3
ME10_DIM_10
100
AcDbAlignedDimension
 13
-160.8280642967462
 23
119.9159396579413
 33
0.0
 14
-165.1692687384204
 24
144.5361334832463
 34
0.0
  0
DIMENSION
  5
1F0
330
1F
100
AcDbEntity
  8
1
100
AcDbDimension
  2
*D4
 10
-231.161477844694
 20
66.6270889796666
 30
0.0
 11
-201.1654521665267
 21
70.1270889796666
 31
0.0
 70
    32
  1
60
 71
     5
 42
-1.0
 53
0.00013888888889
  3
ME10_DIM_11
100
AcDbAlignedDimension
 13
-171.1694264883594
 23
81.252805400237
 33
0.0
 14
-231.161477844694
 24
81.252805400237
 34
0.0
100
AcDbRotatedDimension
  0
DIMENSION
  5
1FB
330
1F
100
AcDbEntity
  8
1
100
AcDbDimension
  2
*D5
 10
-237.6654521665268
 20
54.1887173199455
 30
0.0
 11
-201.1654521665268
 21
57.6887173199455
 31
0.0
 70
    32
  1
<>
 71
     5
 42
-1.0
 53
0.00013888888889
  3
ME10_DIM_12
100
AcDbAlignedDimension
 13
-164.6654521665268
 23
85.12511665493516
 33
0.0
 14
-237.6654521665268
 24
85.12511665493516
 34
0.0
100
AcDbRotatedDimension
  0
DIMENSION
  5
206
330
1F
100
AcDbEntity
  8
1
100
AcDbDimension
  2
*D6
 10
-42.4058303001117
 20
153.0251166549353
 30
0.0
 11
-45.9058303001117
 21
117.0251166549353
 31
0.0
 70
    32
  1
<>
 71
     5
 42
-1.0
 53
90.0
  3
ME10_DIM_13
100
AcDbAlignedDimension
 13
-64.04446062042834
 23
81.02511665493525
 33
0.0
 14
-84.24919925683398
 24
153.0251166549352
 34
0.0
 50
90.0
100
AcDbRotatedDimension
  0
DIMENSION
  5
211
330
1F
100
AcDbEntity
  8
1
100
AcDbDimension
  2
*D7
 10
-105.749199256834
 20
66.6646600996329
 30
0.0
 11
-84.24919925683398
 21
70.1646600996329
 31
0.0
 70
    32
  1
<>
 71
     5
 42
-1.0
 53
0.00013888888889
  3
ME10_DIM_14
100
AcDbAlignedDimension
 13
-62.74919925683398
 23
81.25350618040592
 33
0.0
 14
-105.749199256834
 24
81.25350618040592
 34
0.0
100
AcDbRotatedDimension
  0
HATCH
  5
212
330
1F
100
AcDbEntity
  8
1
  6
Continuous
 62
     4
100
AcDbHatch
 10
0.0
 20
0.0
 30
0.0
210
0.0
220
0.0
230
1.0
  2
SOLID
 70
     1
 71
     1
 91
        1
 92
        1
 93
       16
 72
     2
 10
-199.8330160323793
 20
138.4687494257697
 40
0.3332168604711967
 50
0.0
 51
149.9999999999386
 73
     1
 72
     1
 10
-200.121590298513
 20
138.6353578560036
 11
-201.1658834742519
 21
136.8265890176264
 72
     1
 10
-201.1658834742519
 20
136.8265890176264
 11
-202.210176649988
 21
138.6353578560036
 72
     2
 10
-202.4987509161263
 20
138.4687494257697
 40
0.3332168604711833
 50
29.99999999966557
 51
180.0
 73
     1
 72
     1
 10
-202.8319677765929
 20
138.4687494257697
 11
-202.8319677765929
 21
135.3154031274265
 72
     1
 10
-202.8319677765929
 20
135.3154031274265
 11
-202.8319677765929
 21
134.1051741030872
 72
     2
 10
-202.4987509161263
 20
134.1051741030872
 40
0.3332168604665924
 50
180.0
 51
360.0
 73
     1
 72
     1
 10
-202.1655340556588
 20
134.1051741030872
 11
-202.1655340556588
 21
135.532129737999
 72
     1
 10
-202.1655340556588
 20
135.532129737999
 11
-202.1655340556588
 21
137.2251671725629
 72
     1
 10
-202.1655340556588
 20
137.2251671725629
 11
-201.3101706073256
 21
135.7436342211037
 72
     2
 10
-201.1658834742519
 20
135.8269384362213
 40
0.1666084302398567
 50
209.9999999990783
 51
329.9999999999931
 73
     1
 72
     1
 10
-201.0215963411836
 20
135.7436342211037
 11
-200.166232892844
 21
137.2251671725629
 72
     1
 10
-200.166232892844
 20
137.2251671725629
 11
-200.166232892844
 21
135.3154031274265
 72
     1
 10
-200.166232892844
 20
135.3154031274265
 11
-200.166232892844
 21
132.5814838841009
 72
     2
 10
-199.8330160323793
 20
132.5814838841009
 40
0.3332168604646881
 50
180.0
 51
360.0
 73
     1
 72
     1
 10
-199.4997991719081
 20
132.5814838841009
 11
-199.4997991719081
 21
138.4687494257697
 97
       16
330
1D2
330
14E
330
153
330
1D3
330
154
330
152
330
170
330
151
330
155
330
156
330
1D1
330
157
330
158
330
150
330
16F
330
14F
 75
     0
 76
     1
 98
        1
 10
0.0
 20
0.0
  0
HATCH
  5
213
330
1F
100
AcDbEntity
  8
1
  6
Continuous
 62
     4
100
AcDbHatch
 10
0.0
 20
0.0
 30
0.0
210
0.0
220
0.0
230
1.0
  2
SOLID
 70
     1
 71
     1
 91
        1
 92
        1
 93
        7
 72
     1
 10
-203.4984014975306
 20
137.7140211924805
 11
-203.4984014975306
 21
133.5366575135569
 72
     1
 10
-203.4984014975306
 20
133.5366575135569
 11
-201.3325843876635
 21
132.2986939659319
 72
     2
 10
-201.4991003347203
 20
132.0100663243658
 40
0.3332168604685289
 50
299.9816393687656
 51
479.9816393690593
 73
     0
 72
     1
 10
-201.6656162817788
 20
131.7214386828002
 11
-203.8314333916467
 21
132.9594022304248
 72
     2
 10
-203.4984014975306
 20
133.5366575135569
 40
0.6664337209348901
 50
119.9816393689559
 51
180.0
 73
     0
 72
     1
 10
-204.1648352184655
 20
133.5366575135569
 11
-204.1648352184655
 21
137.7140211924805
 72
     2
 10
-203.8316183579989
 20
137.7140211924805
 40
0.3332168604682977
 50
180.0
 51
360.0
 73
     0
 97
        7
330
14C
330
14B
330
16D
330
14A
330
1D0
330
14D
330
16E
 75
     0
 76
     1
 98
        1
 10
0.0
 20
0.0
  0
HATCH
  5
214
330
1F
100
AcDbEntity
  8
1
  6
Continuous
 62
     4
100
AcDbHatch
 10
0.0
 20
0.0
 30
0.0
210
0.0
220
0.0
230
1.0
  2
SOLID
 70
     1
 71
     1
 91
        1
 92
        1
 93
        5
 72
     1
 10
-204.8312689394023
 20
136.945059206783
 11
-204.8312689394023
 21
134.297628140762
 72
     1
 10
-204.8312689394023
 20
134.297628140762
 11
-204.8312689394023
 21
134.1051741030872
 72
     2
 10
-205.1644857998698
 20
134.1051741030872
 40
0.3332168604674166
 50
0.0
 51
180.0
 73
     0
 72
     1
 10
-205.4977026603372
 20
134.1051741030872
 11
-205.4977026603372
 21
136.945059206783
 72
     2
 10
-205.1644857998698
 20
136.945059206783
 40
0.3332168604675019
 50
180.0
 51
360.0
 73
     0
 97
        5
330
149
330
148
330
16B
330
147
330
16C
 75
     0
 76
     1
 98
        1
 10
0.0
 20
0.0
  0
HATCH
  5
215
330
1F
100
AcDbEntity
  8
1
  6
Continuous
 62
     4
100
AcDbHatch
 10
0.0
 20
0.0
 30
0.0
210
0.0
220
0.0
230
1.0
  2
SOLID
 70
     1
 71
     1
 91
        1
 92
        1
 93
       15
 72
     1
 10
-198.333632643449
 20
137.9955038047194
 11
-197.0007652015727
 21
137.2336305421019
 72
     2
 10
-197.1672811486304
 20
136.9450029005367
 40
0.333216860467637
 50
299.981639368975
 51
479.9816393686175
 73
     0
 72
     1
 10
-197.3337970956862
 20
136.6563752589706
 11
-198.1669317300373
 21
137.1325989119221
 72
     1
 10
-198.1669317300373
 20
137.1325989119221
 11
-198.1669317300373
 21
135.8583335154036
 72
     1
 10
-198.1669317300373
 20
135.8583335154036
 11
-197.1672811486304
 21
135.8583335154036
 72
     2
 10
-197.1672811486304
 20
135.5251166549348
 40
0.3332168604678145
 50
270.0
 51
450.0
 73
     0
 72
     1
 10
-197.1672811486304
 20
135.191899794467
 11
-198.1669317300373
 21
135.191899794467
 72
     1
 10
-198.1669317300373
 20
135.191899794467
 11
-198.1669317300373
 21
133.9176374676146
 72
     1
 10
-198.1669317300373
 20
133.9176374676146
 11
-197.3337970956862
 21
134.3938017446532
 72
     2
 10
-197.1672811486304
 20
134.1051741030872
 40
0.3332168604683829
 50
240.0183606313728
 51
360.0
 73
     0
 72
     2
 10
-197.1672811486304
 20
134.1051741030872
 40
0.3332168604687467
 50
0.0
 51
60.01836063112022
 73
     0
 72
     1
 10
-197.0007652015727
 20
133.8165464615209
 11
-198.333632643449
 21
133.0547295051512
 72
     2
 10
-198.500148590503
 20
133.3433571467173
 40
0.3332168604675019
 50
60.01836063165344
 51
180.0
 73
     0
 72
     1
 10
-198.8333654509705
 20
133.3433571467173
 11
-198.8333654509705
 21
137.7068761631527
 72
     2
 10
-198.500148590503
 20
137.7068761631527
 40
0.3332168604672204
 50
180.0
 51
299.9816393682977
 73
     0
 97
       15
330
146
330
16A
330
145
330
144
330
143
330
169
330
142
330
141
330
140
330
168
330
167
330
13F
330
1CE
330
13E
330
1CF
 75
     0
 76
     1
 98
        1
 10
0.0
 20
0.0
  0
HATCH
  5
216
330
1F
100
AcDbEntity
  8
1
  6
Continuous
 62
     4
100
AcDbHatch
 10
0.0
 20
0.0
 30
0.0
210
0.0
220
0.0
230
1.0
  2
SOLID
 70
     1
 71
     1
 91
        2
 92
        1
 93
       10
 72
     2
 10
-201.1658834742519
 20
140.1901527014921
 40
0.3332168604684495
 50
60.24751292418638
 51
90.0
 73
     1
 72
     2
 10
-201.1658834742519
 20
140.1901527014921
 40
0.333216860467985
 50
90.0
 51
119.7519359345374
 73
     1
 72
     1
 10
-201.3312409545668
 20
140.4794455977137
 11
-209.7454989270289
 21
135.6699237767027
 72
     2
 10
-209.6627283471078
 20
135.5251166549348
 40
0.1667934993192977
 50
119.751935934672
 51
240.2480640651633
 73
     1
 72
     1
 10
-209.7454989270289
 20
135.3803095331679
 11
-201.3312409545668
 21
130.5707877121561
 72
     2
 10
-201.1658834742519
 20
130.8600806083778
 40
0.3332168604684407
 50
240.2480640654748
 51
270.0
 73
     1
 72
     2
 10
-201.1658834742519
 20
130.8600806083778
 40
0.3332168604678998
 50
270.0
 51
299.7524870757869
 73
     1
 72
     1
 10
-201.0005232111697
 20
130.5707893027808
 11
-192.5861734007675
 21
135.3804710021365
 72
     2
 10
-192.6688535323054
 20
135.5251166549348
 40
0.1666084302326133
 50
299.7524870748638
 51
420.2475129252332
 73
     1
 72
     1
 10
-192.5861734007675
 20
135.6697623077337
 11
-201.0005232111697
 21
140.4794440070888
 97
       10
330
174
330
15B
330
175
330
171
330
15C
330
176
330
159
330
173
330
172
330
15A
 92
       16
 93
        4
 72
     1
 10
-201.1658834742519
 20
140.1901527014921
 11
-193.0045855698316
 21
135.5251166549348
 72
     1
 10
-193.0045855698316
 20
135.5251166549348
 11
-201.1658834742519
 21
130.8600806083778
 72
     1
 10
-201.1658834742519
 20
130.8600806083778
 11
-209.3273635979266
 21
135.5251166549348
 72
     1
 10
-209.3273635979266
 20
135.5251166549348
 11
-201.1658834742519
 21
140.1901527014921
 97
        4
330
160
330
15F
330
15E
330
15D
 75
     0
 76
     1
 98
        1
 10
0.0
 20
0.0
  0
ENDSEC
  0
SECTION
  2
OBJECTS
  0
DICTIONARY
  5
C
330
0
100
AcDbDictionary
281
     1
  3
ACAD_GROUP
350
D
  3
ACAD_LAYOUT
350
1A
  3
ACAD_MATERIAL
350
3B
  3
ACAD_MLEADERSTYLE
350
219
  3
ACAD_MLINESTYLE
350
17
  3
ACAD_PLOTSETTINGS
350
19
  3
ACAD_PLOTSTYLENAME
350
E
  3
ACAD_VISUALSTYLE
350
2A
  3
AcDbVariableDictionary
350
217
  0
DICTIONARY
  5
D
102
{ACAD_REACTORS
330
C
102
}
330
C
100
AcDbDictionary
281
     1
  0
DICTIONARY
  5
1A
102
{ACAD_REACTORS
330
C
102
}
330
C
100
AcDbDictionary
281
     1
  3
Layout1
350
1E
  3
Layout2
350
26
  3
Model
350
22
  0
DICTIONARY
  5
3B
102
{ACAD_REACTORS
330
C
102
}
330
C
100
AcDbDictionary
281
     1
  3
ByBlock
350
3D
  3
ByLayer
350
3C
  3
Global
350
3E
  0
DICTIONARY
  5
219
102
{ACAD_REACTORS
330
C
102
}
330
C
100
AcDbDictionary
281
     1
  0
DICTIONARY
  5
17
102
{ACAD_REACTORS
330
C
102
}
330
C
100
AcDbDictionary
281
     1
  3
Standard
350
18
  0
DICTIONARY
  5
19
102
{ACAD_REACTORS
330
C
102
}
330
C
100
AcDbDictionary
281
     1
  0
ACDBDICTIONARYWDFLT
  5
E
102
{ACAD_REACTORS
330
C
102
}
330
C
100
AcDbDictionary
281
     1
  3
Normal
350
F
100
AcDbDictionaryWithDefault
340
F
  0
DICTIONARY
  5
2A
102
{ACAD_REACTORS
330
C
102
}
330
C
100
AcDbDictionary
281
     1
  3
2dWireframe
350
2F
  3
3D Hidden
350
31
  3
3dWireframe
350
30
  3
Basic
350
32
  3
Brighten
350
36
  3
ColorChange
350
3A
  3
Conceptual
350
34
  3
Dim
350
35
  3
Facepattern
350
39
  3
Flat
350
2B
  3
FlatWithEdges
350
2C
  3
Gouraud
350
2D
  3
GouraudWithEdges
350
2E
  3
Linepattern
350
38
  3
Realistic
350
33
  3
Thicken
350
37
  0
DICTIONARY
  5
217
102
{ACAD_REACTORS
330
C
102
}
330
C
100
AcDbDictionary
281
     1
  3
DIMASSOC
350
21A
  3
HIDETEXT
350
21B
  0
LAYOUT
  5
1E
102
{ACAD_REACTORS
330
1A
102
}
330
1A
100
AcDbPlotSettings
  1

  2
none_device
  4

  6

 40
0.0
 41
0.0
 42
0.0
 43
0.0
 44
0.0
 45
0.0
 46
0.0
 47
0.0
 48
0.0
 49
0.0
140
0.0
141
0.0
142
1.0
143
1.0
 70
   688
 72
     0
 73
     0
 74
     5
  7

 75
    16
147
1.0
148
0.0
149
0.0
100
AcDbLayout
  1
Layout1
 70
     1
 71
     1
 10
0.0
 20
0.0
 11
12.0
 21
9.0
 12
0.0
 22
0.0
 32
0.0
 14
1.00000000000000E+20
 24
1.00000000000000E+20
 34
1.00000000000000E+20
 15
-1.00000000000000E+20
 25
-1.00000000000000E+20
 35
-1.00000000000000E+20
146
0.0
 13
0.0
 23
0.0
 33
0.0
 16
1.0
 26
0.0
 36
0.0
 17
0.0
 27
1.0
 37
0.0
 76
     0
330
1B
  0
LAYOUT
  5
26
102
{ACAD_REACTORS
330
1A
102
}
330
1A
100
AcDbPlotSettings
  1

  2
none_device
  4

  6

 40
0.0
 41
0.0
 42
0.0
 43
0.0
 44
0.0
 45
0.0
 46
0.0
 47
0.0
 48
0.0
 49
0.0
140
0.0
141
0.0
142
1.0
143
1.0
 70
   688
 72
     0
 73
     0
 74
     5
  7

 75
    16
147
1.0
148
0.0
149
0.0
100
AcDbLayout
  1
Layout2
 70
     1
 71
     2
 10
0.0
 20
0.0
 11
0.0
 21
0.0
 12
0.0
 22
0.0
 32
0.0
 14
0.0
 24
0.0
 34
0.0
 15
0.0
 25
0.0
 35
0.0
146
0.0
 13
0.0
 23
0.0
 33
0.0
 16
1.0
 26
0.0
 36
0.0
 17
0.0
 27
1.0
 37
0.0
 76
     0
330
23
  0
LAYOUT
  5
22
102
{ACAD_REACTORS
330
1A
102
}
330
1A
100
AcDbPlotSettings
  1

  2
none_device
  4

  6

 40
0.0
 41
0.0
 42
0.0
 43
0.0
 44
0.0
 45
0.0
 46
0.0
 47
0.0
 48
0.0
 49
0.0
140
0.0
141
0.0
142
1.0
143
1.0
 70
  1712
 72
     0
 73
     0
 74
     0
  7

 75
     0
147
1.0
148
0.0
149
0.0
100
AcDbLayout
  1
Model
 70
     1
 71
     0
 10
0.0
 20
0.0
 11
12.0
 21
9.0
 12
0.0
 22
0.0
 32
0.0
 14
-297.0000000000001
 24
0.0
 34
0.0
 15
0.0
 25
210.0000000000001
 35
0.0
146
0.0
 13
0.0
 23
0.0
 33
0.0
 16
1.0
 26
0.0
 36
0.0
 17
0.0
 27
1.0
 37
0.0
 76
     0
330
1F
331
29
  0
MATERIAL
  5
3D
102
{ACAD_REACTORS
330
3B
102
}
102
{ACAD_XDICTIONARY
360
23E
102
}
330
3B
100
AcDbMaterial
  1
ByBlock
  0
MATERIAL
  5
3C
102
{ACAD_REACTORS
330
3B
102
}
102
{ACAD_XDICTIONARY
360
23C
102
}
330
3B
100
AcDbMaterial
  1
ByLayer
  0
MATERIAL
  5
3E
102
{ACAD_REACTORS
330
3B
102
}
102
{ACAD_XDICTIONARY
360
240
102
}
330
3B
100
AcDbMaterial
  1
Global
  0
MLINESTYLE
  5
18
102
{ACAD_REACTORS
330
17
102
}
330
17
100
AcDbMlineStyle
  2
Standard
 70
     0
  3

 62
   256
 51
90.0
 52
90.0
 71
     2
 49
0.5
 62
   256
  6
BYLAYER
 49
-0.5
 62
   256
  6
BYLAYER
  0
ACDBPLACEHOLDER
  5
F
102
{ACAD_REACTORS
330
E
102
}
330
E
  0
VISUALSTYLE
  5
2F
102
{ACAD_REACTORS
330
2A
102
}
102
{ACAD_XDICTIONARY
360
224
102
}
330
2A
100
AcDbVisualStyle
  2
2dWireframe
 70
     4
 71
     0
 72
     2
 73
     0
 90
        0
 40
-0.6
 41
-30.0
 62
     5
 63
     7
 74
     1
 91
        4
 64
     7
 65
   257
 75
     1
175
     1
 42
1.0
 92
        0
 66
   257
 43
1.0
 76
     1
 77
     6
 78
     2
 67
     7
 79
     5
170
     0
171
     0
290
     0
174
     0
 93
        1
 44
0.0
173
     0
291
     0
 45
0.0
1001
ACAD
1000
AcDbSavedByObjectVersion
1070
     0
  0
VISUALSTYLE
  5
31
102
{ACAD_REACTORS
330
2A
102
}
102
{ACAD_XDICTIONARY
360
228
102
}
330
2A
100
AcDbVisualStyle
  2
3D Hidden
 70
     6
 71
     1
 72
     2
 73
     2
 90
        0
 40
-0.6
 41
-30.0
 62
     5
 63
     7
 74
     2
 91
        2
 64
     7
 65
   257
 75
     2
175
     1
 42
40.0
 92
        0
 66
   257
 43
1.0
 76
     1
 77
     6
 78
     2
 67
     7
 79
     3
170
     0
171
     0
290
     0
174
     0
 93
        1
 44
0.0
173
     0
291
     0
 45
0.0
1001
ACAD
1000
AcDbSavedByObjectVersion
1070
     0
  0
VISUALSTYLE
  5
30
102
{ACAD_REACTORS
330
2A
102
}
102
{ACAD_XDICTIONARY
360
226
102
}
330
2A
100
AcDbVisualStyle
  2
3dWireframe
 70
     5
 71
     0
 72
     2
 73
     0
 90
        0
 40
-0.6
 41
-30.0
 62
     5
 63
     7
 74
     1
 91
        4
 64
     7
 65
   257
 75
     1
175
     1
 42
1.0
 92
        0
 66
   257
 43
1.0
 76
     1
 77
     6
 78
     2
 67
     7
 79
     5
170
     0
171
     0
290
     0
174
     0
 93
        1
 44
0.0
173
     0
291
     0
 45
0.0
1001
ACAD
1000
AcDbSavedByObjectVersion
1070
     0
  0
VISUALSTYLE
  5
32
102
{ACAD_REACTORS
330
2A
102
}
102
{ACAD_XDICTIONARY
360
22A
102
}
330
2A
100
AcDbVisualStyle
  2
Basic
 70
     7
 71
     1
 72
     0
 73
     1
 90
        0
 40
-0.6
 41
-30.0
 62
     5
 63
     7
 74
     0
 91
        4
 64
     7
 65
   257
 75
     1
175
     1
 42
1.0
 92
        8
 66
     7
 43
1.0
 76
     1
 77
     6
 78
     2
 67
     7
 79
     5
170
     0
171
     0
290
     0
174
     0
 93
        1
 44
0.0
173
     0
291
     1
 45
0.0
1001
ACAD
1000
AcDbSavedByObjectVersion
1070
     0
  0
VISUALSTYLE
  5
36
102
{ACAD_REACTORS
330
2A
102
}
102
{ACAD_XDICTIONARY
360
232
102
}
330
2A
100
AcDbVisualStyle
  2
Brighten
 70
    12
 71
     2
 72
     2
 73
     0
 90
        0
 40
-0.6
 41
-30.0
 62
     5
 63
     7
 74
     1
 91
        4
 64
     7
 65
   257
 75
     1
175
     1
 42
1.0
 92
        8
 66
     7
 43
1.0
 76
     1
 77
     6
 78
     2
 67
     7
 79
     5
170
     0
171
     0
290
     0
174
     0
 93
        1
 44
50.0
173
     0
291
     1
 45
0.0
1001
ACAD
1000
AcDbSavedByObjectVersion
1070
     0
  0
VISUALSTYLE
  5
3A
102
{ACAD_REACTORS
330
2A
102
}
102
{ACAD_XDICTIONARY
360
23A
102
}
330
2A
100
AcDbVisualStyle
  2
ColorChange
 70
    16
 71
     2
 72
     2
 73
     3
 90
        0
 40
-0.6
 41
-30.0
 62
     5
 63
     8
 74
     1
 91
        4
 64
     7
 65
   257
 75
     1
175
     1
 42
1.0
 92
        8
 66
     8
 43
1.0
 76
     1
 77
     6
 78
     2
 67
     7
 79
     5
170
     0
171
     0
290
     0
174
     0
 93
        1
 44
0.0
173
     0
291
     1
 45
0.0
1001
ACAD
1000
AcDbSavedByObjectVersion
1070
     0
  0
VISUALSTYLE
  5
34
102
{ACAD_REACTORS
330
2A
102
}
102
{ACAD_XDICTIONARY
360
22E
102
}
330
2A
100
AcDbVisualStyle
  2
Conceptual
 70
     9
 71
     3
 72
     2
 73
     0
 90
        0
 40
-0.6
 41
-30.0
 62
     5
 63
     7
 74
     2
 91
        2
 64
     7
 65
   257
 75
     1
175
     1
 42
40.0
 92
        8
 66
     7
 43
1.0
 76
     1
 77
     6
 78
     2
 67
     7
 79
     3
170
     0
171
     0
290
     0
174
     0
 93
        1
 44
0.0
173
     0
291
     0
 45
0.0
1001
ACAD
1000
AcDbSavedByObjectVersion
1070
     0
  0
VISUALSTYLE
  5
35
102
{ACAD_REACTORS
330
2A
102
}
102
{ACAD_XDICTIONARY
360
230
102
}
330
2A
100
AcDbVisualStyle
  2
Dim
 70
    11
 71
     2
 72
     2
 73
     0
 90
        0
 40
-0.6
 41
-30.0
 62
     5
 63
     7
 74
     1
 91
        4
 64
     7
 65
   257
 75
     1
175
     1
 42
1.0
 92
        8
 66
     7
 43
1.0
 76
     1
 77
     6
 78
     2
 67
     7
 79
     5
170
     0
171
     0
290
     0
174
     0
 93
        1
 44
-50.0
173
     0
291
     1
 45
0.0
1001
ACAD
1000
AcDbSavedByObjectVersion
1070
     0
  0
VISUALSTYLE
  5
39
102
{ACAD_REACTORS
330
2A
102
}
102
{ACAD_XDICTIONARY
360
238
102
}
330
2A
100
AcDbVisualStyle
  2
Facepattern
 70
    15
 71
     2
 72
     2
 73
     0
 90
        0
 40
-0.6
 41
-30.0
 62
     5
 63
     7
 74
     1
 91
        4
 64
     7
 65
   257
 75
     1
175
     1
 42
1.0
 92
        8
 66
     7
 43
1.0
 76
     1
 77
     6
 78
     2
 67
     7
 79
     5
170
     0
171
     0
290
     0
174
     0
 93
        1
 44
0.0
173
     0
291
     1
 45
0.0
1001
ACAD
1000
AcDbSavedByObjectVersion
1070
     0
  0
VISUALSTYLE
  5
2B
102
{ACAD_REACTORS
330
2A
102
}
102
{ACAD_XDICTIONARY
360
21C
102
}
330
2A
100
AcDbVisualStyle
  2
Flat
 70
     0
 71
     2
 72
     1
 73
     1
 90
        2
 40
-0.6
 41
30.0
 62
     5
 63
     7
 74
     0
 91
        4
 64
     7
 65
   257
 75
     1
175
     1
 42
1.0
 92
        8
 66
     7
 43
1.0
 76
     1
 77
     6
 78
     2
 67
     7
 79
     5
170
     0
171
     0
290
     0
174
     0
 93
       13
 44
0.0
173
     0
291
     1
 45
0.0
1001
ACAD
1000
AcDbSavedByObjectVersion
1070
     0
  0
VISUALSTYLE
  5
2C
102
{ACAD_REACTORS
330
2A
102
}
102
{ACAD_XDICTIONARY
360
21E
102
}
330
2A
100
AcDbVisualStyle
  2
FlatWithEdges
 70
     1
 71
     2
 72
     1
 73
     1
 90
        2
 40
-0.6
 41
30.0
 62
     5
 63
     7
 74
     1
 91
        4
 64
     7
 65
   257
 75
     1
175
     1
 42
1.0
 92
        0
 66
   257
 43
1.0
 76
     1
 77
     6
 78
     2
 67
     7
 79
     5
170
     0
171
     0
290
     0
174
     0
 93
       13
 44
0.0
173
     0
291
     1
 45
0.0
1001
ACAD
1000
AcDbSavedByObjectVersion
1070
     0
  0
VISUALSTYLE
  5
2D
102
{ACAD_REACTORS
330
2A
102
}
102
{ACAD_XDICTIONARY
360
220
102
}
330
2A
100
AcDbVisualStyle
  2
Gouraud
 70
     2
 71
     2
 72
     2
 73
     1
 90
        2
 40
-0.6
 41
30.0
 62
     5
 63
     7
 74
     0
 91
        4
 64
     7
 65
   257
 75
     1
175
     1
 42
1.0
 92
        0
 66
     7
 43
1.0
 76
     1
 77
     6
 78
     2
 67
     7
 79
     5
170
     0
171
     0
290
     0
174
     0
 93
       13
 44
0.0
173
     0
291
     1
 45
0.0
1001
ACAD
1000
AcDbSavedByObjectVersion
1070
     0
  0
VISUALSTYLE
  5
2E
102
{ACAD_REACTORS
330
2A
102
}
102
{ACAD_XDICTIONARY
360
222
102
}
330
2A
100
AcDbVisualStyle
  2
GouraudWithEdges
 70
     3
 71
     2
 72
     2
 73
     1
 90
        2
 40
-0.6
 41
30.0
 62
     5
 63
     7
 74
     1
 91
        4
 64
     7
 65
   257
 75
     1
175
     1
 42
1.0
 92
        0
 66
   257
 43
1.0
 76
     1
 77
     6
 78
     2
 67
     7
 79
     5
170
     0
171
     0
290
     0
174
     0
 93
       13
 44
0.0
173
     0
291
     1
 45
0.0
1001
ACAD
1000
AcDbSavedByObjectVersion
1070
     0
  0
VISUALSTYLE
  5
38
102
{ACAD_REACTORS
330
2A
102
}
102
{ACAD_XDICTIONARY
360
236
102
}
330
2A
100
AcDbVisualStyle
  2
Linepattern
 70
    14
 71
     2
 72
     2
 73
     0
 90
        0
 40
-0.6
 41
-30.0
 62
     5
 63
     7
 74
     1
 91
        4
 64
     7
 65
   257
 75
     7
175
     7
 42
1.0
 92
        8
 66
     7
 43
1.0
 76
     1
 77
     6
 78
     2
 67
     7
 79
     5
170
     0
171
     0
290
     0
174
     0
 93
        1
 44
0.0
173
     0
291
     1
 45
0.0
1001
ACAD
1000
AcDbSavedByObjectVersion
1070
     0
  0
VISUALSTYLE
  5
33
102
{ACAD_REACTORS
330
2A
102
}
102
{ACAD_XDICTIONARY
360
22C
102
}
330
2A
100
AcDbVisualStyle
  2
Realistic
 70
     8
 71
     2
 72
     2
 73
     0
 90
        0
 40
-0.6
 41
-30.0
 62
     5
 63
     7
 74
     1
 91
        0
 64
     7
 65
   257
 75
     1
175
     1
 42
1.0
 92
        8
 66
     8
 43
1.0
 76
     1
 77
     6
 78
     2
 67
     7
 79
     5
170
     0
171
     0
290
     0
174
     0
 93
       13
 44
0.0
173
     0
291
     0
 45
0.0
1001
ACAD
1000
AcDbSavedByObjectVersion
1070
     0
  0
VISUALSTYLE
  5
37
102
{ACAD_REACTORS
330
2A
102
}
102
{ACAD_XDICTIONARY
360
234
102
}
330
2A
100
AcDbVisualStyle
  2
Thicken
 70
    13
 71
     2
 72
     2
 73
     0
 90
        0
 40
-0.6
 41
-30.0
 62
     5
 63
     7
 74
     1
 91
        4
 64
     7
 65
   257
 75
     1
175
     1
 42
1.0
 92
       12
 66
     7
 43
1.0
 76
     1
 77
     6
 78
     2
 67
     7
 79
     5
170
     0
171
     0
290
     0
174
     0
 93
        1
 44
0.0
173
     0
291
     1
 45
0.0
1001
ACAD
1000
AcDbSavedByObjectVersion
1070
     0
  0
DICTIONARYVAR
  5
21A
102
{ACAD_REACTORS
330
217
102
}
330
217
100
DictionaryVariables
280
     0
  1
2
  0
DICTIONARYVAR
  5
21B
102
{ACAD_REACTORS
330
217
102
}
330
217
100
DictionaryVariables
280
     0
  1
1
  0
DICTIONARY
  5
23E
330
3D
100
AcDbDictionary
280
     1
281
     1
  3
ACAD_XREC_ROUNDTRIP
360
23F
  0
DICTIONARY
  5
23C
330
3C
100
AcDbDictionary
280
     1
281
     1
  3
ACAD_XREC_ROUNDTRIP
360
23D
  0
DICTIONARY
  5
240
330
3E
100
AcDbDictionary
280
     1
281
     1
  3
ACAD_XREC_ROUNDTRIP
360
241
  0
DICTIONARY
  5
224
330
2F
100
AcDbDictionary
280
     1
281
     1
  3
ACAD_XREC_ROUNDTRIP
360
225
  0
DICTIONARY
  5
228
330
31
100
AcDbDictionary
280
     1
281
     1
  3
ACAD_XREC_ROUNDTRIP
360
229
  0
DICTIONARY
  5
226
330
30
100
AcDbDictionary
280
     1
281
     1
  3
ACAD_XREC_ROUNDTRIP
360
227
  0
DICTIONARY
  5
22A
330
32
100
AcDbDictionary
280
     1
281
     1
  3
ACAD_XREC_ROUNDTRIP
360
22B
  0
DICTIONARY
  5
232
330
36
100
AcDbDictionary
280
     1
281
     1
  3
ACAD_XREC_ROUNDTRIP
360
233
  0
DICTIONARY
  5
23A
330
3A
100
AcDbDictionary
280
     1
281
     1
  3
ACAD_XREC_ROUNDTRIP
360
23B
  0
DICTIONARY
  5
22E
330
34
100
AcDbDictionary
280
     1
281
     1
  3
ACAD_XREC_ROUNDTRIP
360
22F
  0
DICTIONARY
  5
230
330
35
100
AcDbDictionary
280
     1
281
     1
  3
ACAD_XREC_ROUNDTRIP
360
231
  0
DICTIONARY
  5
238
330
39
100
AcDbDictionary
280
     1
281
     1
  3
ACAD_XREC_ROUNDTRIP
360
239
  0
DICTIONARY
  5
21C
330
2B
100
AcDbDictionary
280
     1
281
     1
  3
ACAD_XREC_ROUNDTRIP
360
21D
  0
DICTIONARY
  5
21E
330
2C
100
AcDbDictionary
280
     1
281
     1
  3
ACAD_XREC_ROUNDTRIP
360
21F
  0
DICTIONARY
  5
220
330
2D
100
AcDbDictionary
280
     1
281
     1
  3
ACAD_XREC_ROUNDTRIP
360
221
  0
DICTIONARY
  5
222
330
2E
100
AcDbDictionary
280
     1
281
     1
  3
ACAD_XREC_ROUNDTRIP
360
223
  0
DICTIONARY
  5
236
330
38
100
AcDbDictionary
280
     1
281
     1
  3
ACAD_XREC_ROUNDTRIP
360
237
  0
DICTIONARY
  5
22C
330
33
100
AcDbDictionary
280
     1
281
     1
  3
ACAD_XREC_ROUNDTRIP
360
22D
  0
DICTIONARY
  5
234
330
37
100
AcDbDictionary
280
     1
281
     1
  3
ACAD_XREC_ROUNDTRIP
360
235
  0
XRECORD
  5
23F
102
{ACAD_REACTORS
330
23E
102
}
330
23E
100
AcDbXrecord
280
     1
102
MATERIAL
148
0.0
149
0.0
149
0.0
 93
        0
 94
      127
282
     0
 72
     1
 77
     1
171
     1
175
     1
179
     1
273
     0
  0
XRECORD
  5
23D
102
{ACAD_REACTORS
330
23C
102
}
330
23C
100
AcDbXrecord
280
     1
102
MATERIAL
148
0.0
149
0.0
149
0.0
 93
        0
 94
      127
282
     0
 72
     1
 77
     1
171
     1
175
     1
179
     1
273
     0
  0
XRECORD
  5
241
102
{ACAD_REACTORS
330
240
102
}
330
240
100
AcDbXrecord
280
     1
102
MATERIAL
148
0.0
149
0.0
149
0.0
 93
        0
 94
      127
282
     0
 72
     1
 77
     1
171
     1
175
     1
179
     1
273
     0
  0
XRECORD
  5
225
102
{ACAD_REACTORS
330
224
102
}
330
224
100
AcDbXrecord
280
     1
102
RTVSPropertyOp0
 70
     1
102
RTVSPropertyOp1
 70
     1
102
RTVSPropertyOp2
 70
     1
102
RTVSPropertyOp3
 70
     1
102
RTVSPropertyOp4
 70
     1
102
RTVSPropertyOp5
 70
     1
102
RTVSPropertyOp6
 70
     1
102
RTVSPropertyOp7
 70
     1
102
RTVSPropertyOp8
 70
     1
102
RTVSPropertyOp9
 70
     1
102
RTVSPropertyOp10
 70
     1
102
RTVSPropertyOp11
 70
     1
102
RTVSPropertyOp12
 70
     1
102
RTVSPropertyOp13
 70
     1
102
RTVSPropertyOp14
 70
     1
102
RTVSPropertyOp15
 70
     1
102
RTVSPropertyOp16
 70
     1
102
RTVSPropertyOp17
 70
     1
102
RTVSPropertyOp18
 70
     1
102
RTVSPropertyOp19
 70
     1
102
RTVSPropertyOp20
 70
     1
102
RTVSPropertyOp21
 70
     1
102
RTVSPropertyOp22
 70
     1
102
RTVSPropertyOp23
 70
     1
102
RTVSPropertyOp24
 70
     1
102
RTVSPropertyOp25
 70
     1
102
RTVSPropertyOp26
 70
     1
102
RTVSPropertyOp27
 70
     1
102
RTVSPropertyOp28
 70
     1
102
RTVSPropertyOp29
 70
     1
102
RTVSPropertyOp30
 70
     1
102
RTVSPropertyOp31
 70
     1
102
RTVSPropertyOp32
 70
     1
  0
XRECORD
  5
229
102
{ACAD_REACTORS
330
228
102
}
330
228
100
AcDbXrecord
280
     1
102
RTVSPropertyOp0
 70
     1
102
RTVSPropertyOp1
 70
     1
102
RTVSPropertyOp2
 70
     1
102
RTVSPropertyOp3
 70
     1
102
RTVSPropertyOp4
 70
     1
102
RTVSPropertyOp5
 70
     1
102
RTVSPropertyOp6
 70
     1
102
RTVSPropertyOp7
 70
     1
102
RTVSPropertyOp8
 70
     1
102
RTVSPropertyOp9
 70
     1
102
RTVSPropertyOp10
 70
     1
102
RTVSPropertyOp11
 70
     1
102
RTVSPropertyOp12
 70
     1
102
RTVSPropertyOp13
 70
     1
102
RTVSPropertyOp14
 70
     1
102
RTVSPropertyOp15
 70
     1
102
RTVSPropertyOp16
 70
     1
102
RTVSPropertyOp17
 70
     1
102
RTVSPropertyOp18
 70
     1
102
RTVSPropertyOp19
 70
     1
102
RTVSPropertyOp20
 70
     1
102
RTVSPropertyOp21
 70
     1
102
RTVSPropertyOp22
 70
     1
102
RTVSPropertyOp23
 70
     1
102
RTVSPropertyOp24
 70
     1
102
RTVSPropertyOp25
 70
     1
102
RTVSPropertyOp26
 70
     1
102
RTVSPropertyOp27
 70
     1
102
RTVSPropertyOp28
 70
     1
102
RTVSPropertyOp29
 70
     1
102
RTVSPropertyOp30
 70
     1
102
RTVSPropertyOp31
 70
     1
102
RTVSPropertyOp32
 70
     1
  0
XRECORD
  5
227
102
{ACAD_REACTORS
330
226
102
}
330
226
100
AcDbXrecord
280
     1
102
RTVSPropertyOp0
 70
     1
102
RTVSPropertyOp1
 70
     1
102
RTVSPropertyOp2
 70
     1
102
RTVSPropertyOp3
 70
     1
102
RTVSPropertyOp4
 70
     1
102
RTVSPropertyOp5
 70
     1
102
RTVSPropertyOp6
 70
     1
102
RTVSPropertyOp7
 70
     1
102
RTVSPropertyOp8
 70
     1
102
RTVSPropertyOp9
 70
     1
102
RTVSPropertyOp10
 70
     1
102
RTVSPropertyOp11
 70
     1
102
RTVSPropertyOp12
 70
     1
102
RTVSPropertyOp13
 70
     1
102
RTVSPropertyOp14
 70
     1
102
RTVSPropertyOp15
 70
     1
102
RTVSPropertyOp16
 70
     1
102
RTVSPropertyOp17
 70
     1
102
RTVSPropertyOp18
 70
     1
102
RTVSPropertyOp19
 70
     1
102
RTVSPropertyOp20
 70
     1
102
RTVSPropertyOp21
 70
     1
102
RTVSPropertyOp22
 70
     1
102
RTVSPropertyOp23
 70
     1
102
RTVSPropertyOp24
 70
     1
102
RTVSPropertyOp25
 70
     1
102
RTVSPropertyOp26
 70
     1
102
RTVSPropertyOp27
 70
     1
102
RTVSPropertyOp28
 70
     1
102
RTVSPropertyOp29
 70
     1
102
RTVSPropertyOp30
 70
     1
102
RTVSPropertyOp31
 70
     1
102
RTVSPropertyOp32
 70
     1
  0
XRECORD
  5
22B
102
{ACAD_REACTORS
330
22A
102
}
330
22A
100
AcDbXrecord
280
     1
102
RTVSPropertyOp0
 70
     1
102
RTVSPropertyOp1
 70
     1
102
RTVSPropertyOp2
 70
     1
102
RTVSPropertyOp3
 70
     1
102
RTVSPropertyOp4
 70
     1
102
RTVSPropertyOp5
 70
     1
102
RTVSPropertyOp6
 70
     1
102
RTVSPropertyOp7
 70
     1
102
RTVSPropertyOp8
 70
     1
102
RTVSPropertyOp9
 70
     1
102
RTVSPropertyOp10
 70
     1
102
RTVSPropertyOp11
 70
     1
102
RTVSPropertyOp12
 70
     1
102
RTVSPropertyOp13
 70
     1
102
RTVSPropertyOp14
 70
     1
102
RTVSPropertyOp15
 70
     1
102
RTVSPropertyOp16
 70
     1
102
RTVSPropertyOp17
 70
     1
102
RTVSPropertyOp18
 70
     1
102
RTVSPropertyOp19
 70
     1
102
RTVSPropertyOp20
 70
     1
102
RTVSPropertyOp21
 70
     1
102
RTVSPropertyOp22
 70
     1
102
RTVSPropertyOp23
 70
     1
102
RTVSPropertyOp24
 70
     1
102
RTVSPropertyOp25
 70
     1
102
RTVSPropertyOp26
 70
     1
102
RTVSPropertyOp27
 70
     1
102
RTVSPropertyOp28
 70
     1
102
RTVSPropertyOp29
 70
     1
102
RTVSPropertyOp30
 70
     1
102
RTVSPropertyOp31
 70
     1
102
RTVSPropertyOp32
 70
     1
  0
XRECORD
  5
233
102
{ACAD_REACTORS
330
232
102
}
330
232
100
AcDbXrecord
280
     1
102
RTVSPropertyOp0
 70
     1
102
RTVSPropertyOp1
 70
     1
102
RTVSPropertyOp2
 70
     1
102
RTVSPropertyOp3
 70
     1
102
RTVSPropertyOp4
 70
     1
102
RTVSPropertyOp5
 70
     1
102
RTVSPropertyOp6
 70
     1
102
RTVSPropertyOp7
 70
     1
102
RTVSPropertyOp8
 70
     1
102
RTVSPropertyOp9
 70
     1
102
RTVSPropertyOp10
 70
     1
102
RTVSPropertyOp11
 70
     1
102
RTVSPropertyOp12
 70
     1
102
RTVSPropertyOp13
 70
     1
102
RTVSPropertyOp14
 70
     1
102
RTVSPropertyOp15
 70
     1
102
RTVSPropertyOp16
 70
     1
102
RTVSPropertyOp17
 70
     1
102
RTVSPropertyOp18
 70
     1
102
RTVSPropertyOp19
 70
     1
102
RTVSPropertyOp20
 70
     1
102
RTVSPropertyOp21
 70
     1
102
RTVSPropertyOp22
 70
     1
102
RTVSPropertyOp23
 70
     1
102
RTVSPropertyOp24
 70
     1
102
RTVSPropertyOp25
 70
     1
102
RTVSPropertyOp26
 70
     1
102
RTVSPropertyOp27
 70
     1
102
RTVSPropertyOp28
 70
     1
102
RTVSPropertyOp29
 70
     1
102
RTVSPropertyOp30
 70
     1
102
RTVSPropertyOp31
 70
     1
102
RTVSPropertyOp32
 70
     1
  0
XRECORD
  5
23B
102
{ACAD_REACTORS
330
23A
102
}
330
23A
100
AcDbXrecord
280
     1
102
RTVSPropertyOp0
 70
     1
102
RTVSPropertyOp1
 70
     1
102
RTVSPropertyOp2
 70
     1
102
RTVSPropertyOp3
 70
     1
102
RTVSPropertyOp4
 70
     1
102
RTVSPropertyOp5
 70
     1
102
RTVSPropertyOp6
 70
     1
102
RTVSPropertyOp7
 70
     1
102
RTVSPropertyOp8
 70
     1
102
RTVSPropertyOp9
 70
     1
102
RTVSPropertyOp10
 70
     1
102
RTVSPropertyOp11
 70
     1
102
RTVSPropertyOp12
 70
     1
102
RTVSPropertyOp13
 70
     1
102
RTVSPropertyOp14
 70
     1
102
RTVSPropertyOp15
 70
     1
102
RTVSPropertyOp16
 70
     1
102
RTVSPropertyOp17
 70
     1
102
RTVSPropertyOp18
 70
     1
102
RTVSPropertyOp19
 70
     1
102
RTVSPropertyOp20
 70
     1
102
RTVSPropertyOp21
 70
     1
102
RTVSPropertyOp22
 70
     1
102
RTVSPropertyOp23
 70
     1
102
RTVSPropertyOp24
 70
     1
102
RTVSPropertyOp25
 70
     1
102
RTVSPropertyOp26
 70
     1
102
RTVSPropertyOp27
 70
     1
102
RTVSPropertyOp28
 70
     1
102
RTVSPropertyOp29
 70
     1
102
RTVSPropertyOp30
 70
     1
102
RTVSPropertyOp31
 70
     1
102
RTVSPropertyOp32
 70
     1
  0
XRECORD
  5
22F
102
{ACAD_REACTORS
330
22E
102
}
330
22E
100
AcDbXrecord
280
     1
102
RTVSPropertyOp0
 70
     1
102
RTVSPropertyOp1
 70
     1
102
RTVSPropertyOp2
 70
     1
102
RTVSPropertyOp3
 70
     1
102
RTVSPropertyOp4
 70
     1
102
RTVSPropertyOp5
 70
     1
102
RTVSPropertyOp6
 70
     1
102
RTVSPropertyOp7
 70
     1
102
RTVSPropertyOp8
 70
     1
102
RTVSPropertyOp9
 70
     1
102
RTVSPropertyOp10
 70
     1
102
RTVSPropertyOp11
 70
     1
102
RTVSPropertyOp12
 70
     1
102
RTVSPropertyOp13
 70
     1
102
RTVSPropertyOp14
 70
     1
102
RTVSPropertyOp15
 70
     1
102
RTVSPropertyOp16
 70
     1
102
RTVSPropertyOp17
 70
     1
102
RTVSPropertyOp18
 70
     1
102
RTVSPropertyOp19
 70
     1
102
RTVSPropertyOp20
 70
     1
102
RTVSPropertyOp21
 70
     1
102
RTVSPropertyOp22
 70
     1
102
RTVSPropertyOp23
 70
     1
102
RTVSPropertyOp24
 70
     1
102
RTVSPropertyOp25
 70
     1
102
RTVSPropertyOp26
 70
     1
102
RTVSPropertyOp27
 70
     1
102
RTVSPropertyOp28
 70
     1
102
RTVSPropertyOp29
 70
     1
102
RTVSPropertyOp30
 70
     1
102
RTVSPropertyOp31
 70
     1
102
RTVSPropertyOp32
 70
     1
  0
XRECORD
  5
231
102
{ACAD_REACTORS
330
230
102
}
330
230
100
AcDbXrecord
280
     1
102
RTVSPropertyOp0
 70
     1
102
RTVSPropertyOp1
 70
     1
102
RTVSPropertyOp2
 70
     1
102
RTVSPropertyOp3
 70
     1
102
RTVSPropertyOp4
 70
     1
102
RTVSPropertyOp5
 70
     1
102
RTVSPropertyOp6
 70
     1
102
RTVSPropertyOp7
 70
     1
102
RTVSPropertyOp8
 70
     1
102
RTVSPropertyOp9
 70
     1
102
RTVSPropertyOp10
 70
     1
102
RTVSPropertyOp11
 70
     1
102
RTVSPropertyOp12
 70
     1
102
RTVSPropertyOp13
 70
     1
102
RTVSPropertyOp14
 70
     1
102
RTVSPropertyOp15
 70
     1
102
RTVSPropertyOp16
 70
     1
102
RTVSPropertyOp17
 70
     1
102
RTVSPropertyOp18
 70
     1
102
RTVSPropertyOp19
 70
     1
102
RTVSPropertyOp20
 70
     1
102
RTVSPropertyOp21
 70
     1
102
RTVSPropertyOp22
 70
     1
102
RTVSPropertyOp23
 70
     1
102
RTVSPropertyOp24
 70
     1
102
RTVSPropertyOp25
 70
     1
102
RTVSPropertyOp26
 70
     1
102
RTVSPropertyOp27
 70
     1
102
RTVSPropertyOp28
 70
     1
102
RTVSPropertyOp29
 70
     1
102
RTVSPropertyOp30
 70
     1
102
RTVSPropertyOp31
 70
     1
102
RTVSPropertyOp32
 70
     1
  0
XRECORD
  5
239
102
{ACAD_REACTORS
330
238
102
}
330
238
100
AcDbXrecord
280
     1
102
RTVSPropertyOp0
 70
     1
102
RTVSPropertyOp1
 70
     1
102
RTVSPropertyOp2
 70
     1
102
RTVSPropertyOp3
 70
     1
102
RTVSPropertyOp4
 70
     1
102
RTVSPropertyOp5
 70
     1
102
RTVSPropertyOp6
 70
     1
102
RTVSPropertyOp7
 70
     1
102
RTVSPropertyOp8
 70
     1
102
RTVSPropertyOp9
 70
     1
102
RTVSPropertyOp10
 70
     1
102
RTVSPropertyOp11
 70
     1
102
RTVSPropertyOp12
 70
     1
102
RTVSPropertyOp13
 70
     1
102
RTVSPropertyOp14
 70
     1
102
RTVSPropertyOp15
 70
     1
102
RTVSPropertyOp16
 70
     1
102
RTVSPropertyOp17
 70
     1
102
RTVSPropertyOp18
 70
     1
102
RTVSPropertyOp19
 70
     1
102
RTVSPropertyOp20
 70
     1
102
RTVSPropertyOp21
 70
     1
102
RTVSPropertyOp22
 70
     1
102
RTVSPropertyOp23
 70
     1
102
RTVSPropertyOp24
 70
     1
102
RTVSPropertyOp25
 70
     1
102
RTVSPropertyOp26
 70
     1
102
RTVSPropertyOp27
 70
     1
102
RTVSPropertyOp28
 70
     1
102
RTVSPropertyOp29
 70
     1
102
RTVSPropertyOp30
 70
     1
102
RTVSPropertyOp31
 70
     1
102
RTVSPropertyOp32
 70
     1
  0
XRECORD
  5
21D
102
{ACAD_REACTORS
330
21C
102
}
330
21C
100
AcDbXrecord
280
     1
102
RTVSPropertyOp0
 70
     1
102
RTVSPropertyOp1
 70
     1
102
RTVSPropertyOp2
 70
     1
102
RTVSPropertyOp3
 70
     1
102
RTVSPropertyOp4
 70
     1
102
RTVSPropertyOp5
 70
     1
102
RTVSPropertyOp6
 70
     1
102
RTVSPropertyOp7
 70
     1
102
RTVSPropertyOp8
 70
     1
102
RTVSPropertyOp9
 70
     1
102
RTVSPropertyOp10
 70
     1
102
RTVSPropertyOp11
 70
     1
102
RTVSPropertyOp12
 70
     1
102
RTVSPropertyOp13
 70
     1
102
RTVSPropertyOp14
 70
     1
102
RTVSPropertyOp15
 70
     1
102
RTVSPropertyOp16
 70
     1
102
RTVSPropertyOp17
 70
     1
102
RTVSPropertyOp18
 70
     1
102
RTVSPropertyOp19
 70
     1
102
RTVSPropertyOp20
 70
     1
102
RTVSPropertyOp21
 70
     1
102
RTVSPropertyOp22
 70
     1
102
RTVSPropertyOp23
 70
     1
102
RTVSPropertyOp24
 70
     1
102
RTVSPropertyOp25
 70
     1
102
RTVSPropertyOp26
 70
     1
102
RTVSPropertyOp27
 70
     1
102
RTVSPropertyOp28
 70
     1
102
RTVSPropertyOp29
 70
     1
102
RTVSPropertyOp30
 70
     1
102
RTVSPropertyOp31
 70
     1
102
RTVSPropertyOp32
 70
     1
  0
XRECORD
  5
21F
102
{ACAD_REACTORS
330
21E
102
}
330
21E
100
AcDbXrecord
280
     1
102
RTVSPropertyOp0
 70
     1
102
RTVSPropertyOp1
 70
     1
102
RTVSPropertyOp2
 70
     1
102
RTVSPropertyOp3
 70
     1
102
RTVSPropertyOp4
 70
     1
102
RTVSPropertyOp5
 70
     1
102
RTVSPropertyOp6
 70
     1
102
RTVSPropertyOp7
 70
     1
102
RTVSPropertyOp8
 70
     1
102
RTVSPropertyOp9
 70
     1
102
RTVSPropertyOp10
 70
     1
102
RTVSPropertyOp11
 70
     1
102
RTVSPropertyOp12
 70
     1
102
RTVSPropertyOp13
 70
     1
102
RTVSPropertyOp14
 70
     1
102
RTVSPropertyOp15
 70
     1
102
RTVSPropertyOp16
 70
     1
102
RTVSPropertyOp17
 70
     1
102
RTVSPropertyOp18
 70
     1
102
RTVSPropertyOp19
 70
     1
102
RTVSPropertyOp20
 70
     1
102
RTVSPropertyOp21
 70
     1
102
RTVSPropertyOp22
 70
     1
102
RTVSPropertyOp23
 70
     1
102
RTVSPropertyOp24
 70
     1
102
RTVSPropertyOp25
 70
     1
102
RTVSPropertyOp26
 70
     1
102
RTVSPropertyOp27
 70
     1
102
RTVSPropertyOp28
 70
     1
102
RTVSPropertyOp29
 70
     1
102
RTVSPropertyOp30
 70
     1
102
RTVSPropertyOp31
 70
     1
102
RTVSPropertyOp32
 70
     1
  0
XRECORD
  5
221
102
{ACAD_REACTORS
330
220
102
}
330
220
100
AcDbXrecord
280
     1
102
RTVSPropertyOp0
 70
     1
102
RTVSPropertyOp1
 70
     1
102
RTVSPropertyOp2
 70
     1
102
RTVSPropertyOp3
 70
     1
102
RTVSPropertyOp4
 70
     1
102
RTVSPropertyOp5
 70
     1
102
RTVSPropertyOp6
 70
     1
102
RTVSPropertyOp7
 70
     1
102
RTVSPropertyOp8
 70
     1
102
RTVSPropertyOp9
 70
     1
102
RTVSPropertyOp10
 70
     1
102
RTVSPropertyOp11
 70
     1
102
RTVSPropertyOp12
 70
     1
102
RTVSPropertyOp13
 70
     1
102
RTVSPropertyOp14
 70
     1
102
RTVSPropertyOp15
 70
     1
102
RTVSPropertyOp16
 70
     1
102
RTVSPropertyOp17
 70
     1
102
RTVSPropertyOp18
 70
     1
102
RTVSPropertyOp19
 70
     1
102
RTVSPropertyOp20
 70
     1
102
RTVSPropertyOp21
 70
     1
102
RTVSPropertyOp22
 70
     1
102
RTVSPropertyOp23
 70
     1
102
RTVSPropertyOp24
 70
     1
102
RTVSPropertyOp25
 70
     1
102
RTVSPropertyOp26
 70
     1
102
RTVSPropertyOp27
 70
     1
102
RTVSPropertyOp28
 70
     1
102
RTVSPropertyOp29
 70
     1
102
RTVSPropertyOp30
 70
     1
102
RTVSPropertyOp31
 70
     1
102
RTVSPropertyOp32
 70
     1
  0
XRECORD
  5
223
102
{ACAD_REACTORS
330
222
102
}
330
222
100
AcDbXrecord
280
     1
102
RTVSPropertyOp0
 70
     1
102
RTVSPropertyOp1
 70
     1
102
RTVSPropertyOp2
 70
     1
102
RTVSPropertyOp3
 70
     1
102
RTVSPropertyOp4
 70
     1
102
RTVSPropertyOp5
 70
     1
102
RTVSPropertyOp6
 70
     1
102
RTVSPropertyOp7
 70
     1
102
RTVSPropertyOp8
 70
     1
102
RTVSPropertyOp9
 70
     1
102
RTVSPropertyOp10
 70
     1
102
RTVSPropertyOp11
 70
     1
102
RTVSPropertyOp12
 70
     1
102
RTVSPropertyOp13
 70
     1
102
RTVSPropertyOp14
 70
     1
102
RTVSPropertyOp15
 70
     1
102
RTVSPropertyOp16
 70
     1
102
RTVSPropertyOp17
 70
     1
102
RTVSPropertyOp18
 70
     1
102
RTVSPropertyOp19
 70
     1
102
RTVSPropertyOp20
 70
     1
102
RTVSPropertyOp21
 70
     1
102
RTVSPropertyOp22
 70
     1
102
RTVSPropertyOp23
 70
     1
102
RTVSPropertyOp24
 70
     1
102
RTVSPropertyOp25
 70
     1
102
RTVSPropertyOp26
 70
     1
102
RTVSPropertyOp27
 70
     1
102
RTVSPropertyOp28
 70
     1
102
RTVSPropertyOp29
 70
     1
102
RTVSPropertyOp30
 70
     1
102
RTVSPropertyOp31
 70
     1
102
RTVSPropertyOp32
 70
     1
  0
XRECORD
  5
237
102
{ACAD_REACTORS
330
236
102
}
330
236
100
AcDbXrecord
280
     1
102
RTVSPropertyOp0
 70
     1
102
RTVSPropertyOp1
 70
     1
102
RTVSPropertyOp2
 70
     1
102
RTVSPropertyOp3
 70
     1
102
RTVSPropertyOp4
 70
     1
102
RTVSPropertyOp5
 70
     1
102
RTVSPropertyOp6
 70
     1
102
RTVSPropertyOp7
 70
     1
102
RTVSPropertyOp8
 70
     1
102
RTVSPropertyOp9
 70
     1
102
RTVSPropertyOp10
 70
     1
102
RTVSPropertyOp11
 70
     1
102
RTVSPropertyOp12
 70
     1
102
RTVSPropertyOp13
 70
     1
102
RTVSPropertyOp14
 70
     1
102
RTVSPropertyOp15
 70
     1
102
RTVSPropertyOp16
 70
     1
102
RTVSPropertyOp17
 70
     1
102
RTVSPropertyOp18
 70
     1
102
RTVSPropertyOp19
 70
     1
102
RTVSPropertyOp20
 70
     1
102
RTVSPropertyOp21
 70
     1
102
RTVSPropertyOp22
 70
     1
102
RTVSPropertyOp23
 70
     1
102
RTVSPropertyOp24
 70
     1
102
RTVSPropertyOp25
 70
     1
102
RTVSPropertyOp26
 70
     1
102
RTVSPropertyOp27
 70
     1
102
RTVSPropertyOp28
 70
     1
102
RTVSPropertyOp29
 70
     1
102
RTVSPropertyOp30
 70
     1
102
RTVSPropertyOp31
 70
     1
102
RTVSPropertyOp32
 70
     1
  0
XRECORD
  5
22D
102
{ACAD_REACTORS
330
22C
102
}
330
22C
100
AcDbXrecord
280
     1
102
RTVSPropertyOp0
 70
     1
102
RTVSPropertyOp1
 70
     1
102
RTVSPropertyOp2
 70
     1
102
RTVSPropertyOp3
 70
     1
102
RTVSPropertyOp4
 70
     1
102
RTVSPropertyOp5
 70
     1
102
RTVSPropertyOp6
 70
     1
102
RTVSPropertyOp7
 70
     1
102
RTVSPropertyOp8
 70
     1
102
RTVSPropertyOp9
 70
     1
102
RTVSPropertyOp10
 70
     1
102
RTVSPropertyOp11
 70
     1
102
RTVSPropertyOp12
 70
     1
102
RTVSPropertyOp13
 70
     1
102
RTVSPropertyOp14
 70
     1
102
RTVSPropertyOp15
 70
     1
102
RTVSPropertyOp16
 70
     1
102
RTVSPropertyOp17
 70
     1
102
RTVSPropertyOp18
 70
     1
102
RTVSPropertyOp19
 70
     1
102
RTVSPropertyOp20
 70
     1
102
RTVSPropertyOp21
 70
     1
102
RTVSPropertyOp22
 70
     1
102
RTVSPropertyOp23
 70
     1
102
RTVSPropertyOp24
 70
     1
102
RTVSPropertyOp25
 70
     1
102
RTVSPropertyOp26
 70
     1
102
RTVSPropertyOp27
 70
     1
102
RTVSPropertyOp28
 70
     1
102
RTVSPropertyOp29
 70
     1
102
RTVSPropertyOp30
 70
     1
102
RTVSPropertyOp31
 70
     1
102
RTVSPropertyOp32
 70
     1
  0
XRECORD
  5
235
102
{ACAD_REACTORS
330
234
102
}
330
234
100
AcDbXrecord
280
     1
102
RTVSPropertyOp0
 70
     1
102
RTVSPropertyOp1
 70
     1
102
RTVSPropertyOp2
 70
     1
102
RTVSPropertyOp3
 70
     1
102
RTVSPropertyOp4
 70
     1
102
RTVSPropertyOp5
 70
     1
102
RTVSPropertyOp6
 70
     1
102
RTVSPropertyOp7
 70
     1
102
RTVSPropertyOp8
 70
     1
102
RTVSPropertyOp9
 70
     1
102
RTVSPropertyOp10
 70
     1
102
RTVSPropertyOp11
 70
     1
102
RTVSPropertyOp12
 70
     1
102
RTVSPropertyOp13
 70
     1
102
RTVSPropertyOp14
 70
     1
102
RTVSPropertyOp15
 70
     1
102
RTVSPropertyOp16
 70
     1
102
RTVSPropertyOp17
 70
     1
102
RTVSPropertyOp18
 70
     1
102
RTVSPropertyOp19
 70
     1
102
RTVSPropertyOp20
 70
     1
102
RTVSPropertyOp21
 70
     1
102
RTVSPropertyOp22
 70
     1
102
RTVSPropertyOp23
 70
     1
102
RTVSPropertyOp24
 70
     1
102
RTVSPropertyOp25
 70
     1
102
RTVSPropertyOp26
 70
     1
102
RTVSPropertyOp27
 70
     1
102
RTVSPropertyOp28
 70
     1
102
RTVSPropertyOp29
 70
     1
102
RTVSPropertyOp30
 70
     1
102
RTVSPropertyOp31
 70
     1
102
RTVSPropertyOp32
 70
     1
  0
ENDSEC
  0
EOF
